&title=全世界最尊重黑人的歌手
&artist=大張偉
&first=-0.14
&des=kscore
&lv_5=15.69
&lv_6=16.9
&inote_5=(192)
{4},,,5p1<5[4:11]*q1>5[4:11],,,,,,,,,,,,,5V31V75[4:7]*V71V35[4:7],,,,,,,,,
{4}5-8pp6pp5[4:9]*-2qq4qq5[4:9],,,,,,,,,,,5q5[4:6]*<5[4:6],,,,,,,,
{8}5h[8:4],,4,4,4h[8:4],,5,5,5,,{16}5,4,5,,{4}2b,,
{8}18,,2,34,,7,56,7,{16}1,2,3,4,8,7,6,5,{4}24,2,
{8}81,,7,65,,2,43,2,{16}8,7,6,5,1,2,3,4,{4}75,7,
{8}6/B3,6,6,6,6/C,6,6,6,{4}6/B8,1,28,37,
{8}3/E8,3,3,3,3/E7,3,3,3,3/E6,,{4}5h[4:1],6h[4:1],7h[4:1],
{4}8,{16}3,4,3,,52,,,,6,5,6,,74,,,,{4}4h[4:1],3h[4:1],2h[4:1],
{4}1,{16}6,5,6,,74,,,,3,4,3,,52,,,,{4}4h[8:1]/6h[8:1],2h[8:1]/5h[8:1],8h[8:1]/4h[8:1],
{8}26,,{16}15,26,37,,37,,,,48,37,26,,26,,,,
{4}5pp5qq5[4:4],E1,E2,Ch[8:4],,,,{32}7,6,5,4,,,,,2,3,4,5,6,7,8,1,{8}2/6x,,,,
{8}Cf/1b,,1b,1b,1b/Cf,,1b,,1b,2b,1b/Cf,2b,1b/Cf,,1b,,
{8}Cf/1b,,1b,1b,1b/Cf,,1b,,1b,2b,1b/Cf,2b,1b/Cf,,1b,,
{4}1>7[4:6],B8,B7,B6,B5,B4,B3,B2,
{8}1>4[96#16:1]/8,,2,2,1/8<5[96#16:1],,7,,1/8,1,2,2,3,3,{32}E3,E4,E5,E6,E7,E8,E1,E2,
{8}Cf/8bx,,8b,8b,8b/Cf,,8b,,8b,7b,8b/Cf,7b,8b/Cf,,8b,,
{8}Cf/8b,,8b,8b,8b/Cf,,8b,,8b,7b,8b/Cf,7b,8b/Cf,,8b,,
{4}8<2[4:6],B1,B2,B3,B4,B5,B6,B7,
{32}1x/8x,2x/7x,3x/6x,4x/5x,,,,,{8}27,27,{32}1x/8x,2x/7x,3x/6x,4x/5x,,,,,{8}27,,{32}1x/8x,2x/7x,3x/6x,4x/5x,,,,,{4},Ch[4:2],,
{8}1>4[8:6],,1,1,1,,1,,1<6[8:6],,1,1,1,,1,,1>1[8:8],,1,1,1,,1,,1q5q1[4:3],,,,,,,,
{8}5<8[8:6],,5,5,5,,5,,5>2[8:6],,5,5,5,,5,,5<5[8:10],,5,5,5,,5,,5w1[96#12:1],,,,5bx,,,,
{8}1b-5[8:1]/E8f,,1b-3[8:1]/E8,,1b-5[8:1]/E8f,,1b-3[8:1]/E8,,1b-5[8:1]/E8,,1b-3[8:1]/E8f,,1b-5[8:1]/E8f,,1b-3[8:1]/E8,,
1b-5[8:1]/E8f,,1b-3[8:1]/E8,,1b-5[8:1]/E8f,,1b-3[8:1]/E8,,1b-5[8:1]/E8,,1b-3[8:1]/E8f,,1b-5[8:1]/E8f,,1b-3[8:1]/E8,,
{8}1b-7[8:1]/E7f,,1b-5[8:1]/E7,,1b-7[8:1]/E7f,,1b-5[8:1]/E7,,1b-7[8:1]/E7,,1b-5[8:1]/E7f,,1b-7[8:1]/E7f,,1b-5[8:1]/E7,,
1b-7[8:1]/E7f,,1b-3[8:1]/E7,,1b-7[8:1]/E7f,,1b-3[8:1]/E7,,1b-7[8:1]/E7,,1b-3[8:1]/E7f,,1b-7[8:1]/E7f,,1b-3[8:1]/E7,,
{8}1b-5[8:1]/Cf,,1b/7b,7b,7b-4[8:1]/Cf,,7b/3b<6[8:1],,3b/8b,7b,8b/Cf,7b,8b/Cf,,8b/4b,,
{8}8b-4[8:1]/Cf,,8b/2b,2b,2b-5[8:1]/Cf,,2b/6b>3[8:1],,6b/1b,2b,1b/Cf,2b,1b/Cf,,1b/5b,,
{8}4b/B8f,4,4,4,3b/B7,3,3,3,2b/B6,2,1b/B5,1,
{16}5<4[92#32:23]/1,6<4[92#32:22]/2,7>4[92#32:21]/3,8>4[92#32:20]/4,
{4}1>4[92#32:19]/5,E3,E2,E1,E8,E7,E6,Chf[4:2],,
{8}B2/B3/E3/B7/B6/E7,,1p5[8:1],2,3/1,,8q4[8:1],7,6/8,,5,5>2[8:1],6,7,8<5[8:1],1,2,,3,4,5>2[8:1]*<8[8:1],,5w1[4:2],,,,,,,,
{8}1,2,3>7[4:2]/7,,5,6,7<3[4:2],,1,2,3>7[4:2],,5,6,7V53V17[4:5],,6>7[4:4],,E5,,E4,E3,E2,,E1,,
{4}E8,4h[8:1]/5h[8:1],3h[8:1]/6h[8:1],2h[8:1]/7h[8:1],
{8}18,,8q4[8:1],7,6/8,,1p5[8:1],2,3/1,,4,4<7[8:1],3,2,1>4[8:1],8,7,,6,5,4<7[8:1]*>1[8:1],,4w8[4:2],,,,,,,,
{8}8,7,6<2[4:2]/2,,4,3,2>6[4:2],,8,7,6<2[4:2],,4,3,2V46V82[4:8],,3<2[4:7],,
{4}E3,E4,E5,E6,E7,E8,E1,,
{16}E6,B5,B4,E4f,{4},,
E
&inote_6=
