&title=Beyond The Earth
&artist=猫叉master
&first=-0.025
&lv_5=13
&des_5=白-ster
&inote_5=
(140){4},7b,,4h,
{8},6,4,7h[8:1],{16},1,{8}8h[8:1],2-5[8:1],1,
2,8,7-4[8:1],2-5[8:1],7,2,{16}7h[8:1],{8},{16}2,
{8}6h[8:1],4,5b/3-8[8:1],{16}3,4,{8}3,5,4/6-1[8:1],{16}6,5,
{8}6,4,{16}3/5,{8},{16}2/8,{8},7/5,{4}2/6,
1b/8b,{8}6/5,7/1-4[8:1],{16}1,8,{8}1,6,2/5,
4,3,5/6,7/1,6/5,1,5/2-6[8:1],{16}2,5,
{8}2q2[4:1],4h[8:1],,,,{16}4,2,{8}3,{16}5,7,
{4}6h[4:1],{16}1h[16:3],{8},{16}3h[16:3],{4},{16}6,5,{8}7,
8/3,1/2,3,4/5-8[8:1],{16}5,4,{8}5,3h[8:1],1h[8:1],
5h[8:1],7h[8:1],1-4[8:1],8-5[8:1],1,8,2,{16}3,4,
{8}2,1/3,2/8-5[8:1],{16}8,1,{8}8,2,6/3-8[8:1],{16}3,4,
{4}3,{16}1/7,{8},{16}2/4,{8},7/5,{4}6/2b,
4h,{8}8/2,7/1-4[8:1],{16}1,8,{8}1,6,8/3,
1,2/5,7-4[8:1],2-5[8:1],7,2,8-5[8:1],{16}8,1,
{8}8,2h[8:1],{4}4h[8:3],{16},,,3,5h[8:1],{8},{16}4,
{8}6h[8:1],2,{16}1/7,{8},{16}2/4,{8},7b/5b,{4},4h,
{8}6,3-8[8:1],6,3,{4}6-3[8:1],
{16}6,1,{8},2,4-8[8:1],2,4,{4}2-5[8:1],
{16}2,8,{8},7,5-2[8:1],7,5,{4}7-4[8:1],
{16}7,1,{8},2,4-7[8:1],2,4,{4}2-5[8:1],
{16}2,8,{8},7,5-2[8:1],7,5,{4}7-4[8:1],
{16}7,1,{8},2,4-7[8:1],2,4,{4}2-5[8:1],
{16}2,8,{8},8,1-4[8:1],8,1,{4}8-5[8:1],
{16}8,1,{8},3,4-7[8:1],3,4,{4}3,
{8}6-2-6[4:1],{16}6,4,{4}6,{8}3-7-3[4:1],{16}3,5,{4}3,
{8}6-2-6[4:1],{16}6,4,{4}6,{8},{16}2,5,{8}3,6,
{16}1v4[8:1],{8},{16}2,{4}1,{8}3/5-8[8:1],{16}5,4,{4}5,
{8}7/1-4[8:1],{16}1,8,{4}1,{8}5/3,4,6/5,4,
{16}3-8-3[4:1],5,4,6,{4}3,{8}6-1-6[4:1],{16}6,4,{4}6,
{8}3q6[4:1],{16}3,5,{4}3,{8},{16}7,5,{8}7,8/1,
{16}2-6[8:1],{8},{16}5,{4}2,{8}7/5,4,3/5,4,
5/6q1[4:1],{16}6,4,{4}6,{8}3,{16}3,8,{8}3,3,
{4}1/2,{8}1,2-5[8:1],{16}2,8,{8}2,7,8-4[8:1],
3,8,2-5[8:1],7-4[8:1],2,7,2-5[8:1],{16}2,1,
{8}2,8,7-4[8:1],{16}7,8,{8}7,8,2-5[8:1],{16}2,1,
{8}2,8,{16}2/4,{8},{16}7/5,{8},1/3,{4}2/6,
{8}5b/4b,2b/7b,6,1-5[8:1],{16}1,8,{8}1,8-6[8:1],1,
2-8[8:1],3,4-2[8:1],5-7[8:1],4,5,1-5[8:1],{16}1,8,
{8}1,7,6/4,{16}5,3,{8}5,{16}6,5,{8}7,{16}3,4,
{8}2,1,{16}8/6,{8},{16}3/5,{8},2/8,{4}4h,
{8}3/5,{16}6,4,{8}6,{16}5b,3,{8}5,1b/8,5/4,2/7,
{16}5,2b,{8}5,{16}6/3,{8},{16}2b/8,{8},7b/1,8h[8:1],2,
{16}6b,5b,6b,5b,6b,{8},{16}3b/4b,{8},3b/4b,2/5,{16}6,1,
{8}6,7/8,{16}6/5,{8},{16}4b/7,{8},6/5,{16}3,4,3,5,
2,6,1,7,8b,{8},{16}2b,7,1,7,1,{8}7,6/2,
{16}5,3,5,3,{8}5,{16}2,8,3,4,3,4,3,5,2,5,
2,5,{8}2,{16}1b,{8},{16}7b,{4},{16}4b,{8},{16}3b,
{4},{12}4b,3b,5b,2b,6b,1b,7b/8b,{6},{4}4h,
5<5[8:5],,,,4>4[8:5],
,,,5<5[8:5],
,,,{8}4,
6/5,8,1/3,5/4,6/3,
{16}8,2,{8}8,{4}4-8-4[8:5],,,,5-1-5[8:5],
,,,4-8-4[8:5],
,,,{16}5/3,
{8},{16}5,{8},5,{32}1,2,3,4,8,7,6,5,
1,2,3,4,{16}5,7,{8}5,3/4,2,{16}1,7,{8}1,6/5,
4,{16}3,1,{8}3,8,7/5,{16}3,4,{8}2>4[8:1],8,
{16}2q5[4:1],{8},{16}2,{4}7,{8}7-3[8:1],{16}7,4,{4}7,
{8}5-8[8:1],{16}5,2,{8}5,3,1/2,3,8,4,
6/5,{16}3,4,{8}3,2,1/8,{16}7,5,{8}7,5,
4,{16}3,5,{8}3,2,1/8,{16}7,4,{8}7<5[8:1],2,
{16}7p4[4:1],{8},{16}2,{4}7,,{8}3/4,3/4,
2q5[4:1],{16}2,4,{4}2,{8},{16}7,8,7-4b[8:1],8,7,8,
{4}7b,{16}4,2,{8}4,5,{16}6,8,{8}6,1,
2/4,{16}5,3,{8}5,6/8,1,{16}2,5,{8}2-5[8:1],7,
{16}2p7[4:1],{8},{16}6,{4}2,{8}6,{16}5,3,{8}5,4/2,
5,{16}6,8,{8}6,7/1,{16}8h[8:1],{8},{16}2,1h[8:1],{8},{16}3,
{8}2h[8:1],{16}4,1,{8}8,7,6/5,{16}3,4,{8}3,2,
1/8,{16}7,5,{8}7,4,3/1,{16}7,8,{8}7<5[8:1],2,
{16}7p4[4:1],{8},{16}3,{4}7,{8},3,4/5,6,
7/1,{16}8,2,{8}8,3,4/6,5,7/1,2,
{4}4h,{16}6b,{8},{16}7/5,{4},{16}3,{8},{16}3/5,
{4},{16}6,{8},{16}6/4,{4},{16}8/3,{8},{16}2/1,
{8},{16}6,5,6b,{8},{16}7b/4b,{8},4h,{16}1b/3b,{8},{16}2b/6b,
{8},{16}7,8,7b,{8},{16}2b/4b,{4},{16}1b-4b[8:1]*-6b[8:1],8b,{8},{1}1b,
E
