&title=Radiance
&artist=Nhato
&first=0
&des=Benren
&des_4=Benren feat. WZ
&des_5=Benren
&lv_4=12|12.2
&lv_5=13+|13.9
&inote_4=(155.55){1},
{32},
{4},
(155)
{4}
,,,,1xh[4:4]/Cf,,,,,,,6h[8:10],
{128}B2f,A2,E3,E2,,,,,,,,,,,,,,,,,,,,,,,,,,,,
{4},,,,
{16}
,,,,3h[16:3],,,8h[16:3],,,1,,
{8}
7xh[4:4]/Cf,,,,,,,,,,,,,,3h[8:10],,{128}B8f,E1,E8,A8,,,,,,,,,,,,,,,,,,,,,,,,,,,,,,{8},,,,,,,,,
{16}
5,,2h[16:3],,,8h[16:3],,,4,,
{8}
B1/B8/Cf,,2x,2x,,6,5,6,,3,4,2,2,8,1h[4:1],,
{128}B6f,A6,E7,E6,,,,,,,,,,,,,,,,,,,,,,,,,,,,,{8}
4x,4,5x,5,3,6,,3,6,3,
{16}
1x/8x,,,2x/6x,,,4x/7x,,
{8}
B4/B5/Cf,,7x,7x,,3,4,3,,6,5,7,
{16}
2x/8x,,,1x/6x,,,3x/7x,,1bs5[2:3]/5bz1[2:3],,,,,,,,,,,,,,,,,,,,,,,,,,,,,,,,
{8}
C,,,,,5h[8:3],,,2z6[4:1],,,,,,8x-4[8:1],,8b,,
{16}
3x,4,3,4,3,,25,,6x,5,6,5,6,,3x,4,3,4,3,,6x,5,6,5,7xh[4:1],,,,1b,,,,
6x,5,6,5,6,,47,,2x,3,2,3,2,,7x,8,7,8,7,,2x,1,2,1,3xh[4:1],,,,8b,,,,
7x,8,7,8,7,,16,,2x,1,2,1,2,,7x,8,7,8,7,,3x,4,3,4,2xh[4:1],,,,5b,,,,
6x,5,6,5,6,,47,,2x,1,2,1,3x,,,1x/5x,,,4x/7x,,1x/6x,,,4x/8x,,,5x/6x,,
{64}
7xh[4:1]/A3,A2,B2f,,,,,,
{16}
,,3x,,,,7x,,7x,,53,,,,2,,,,5/6h[16:3],,,,2,,2,,4/5p4[4:3],,,,3h[1:1],,,,,,,,,,,,,,,,E1,,,,E8,,,,E7,,,,E6,,,,
8xh[4:1]/E5f,,,,3x,,,,1,,1,,56,,,,8,,,,4/3h[16:3],,,,8,,8,,5/4>5[4:3],,,,6h[1:1],,,,,,,,,,,,,,,,E4,,,,E3,,,,E2,,,,E1,,,,E8f/3xh[4:1],,,,6x,,,,,,3,,17,,,,6,,,,17,,,2x,,,5x,,5-8[4:1],,,,,,,,4-1[4:1],,,,,,,,6>3[4:1],,2x<7[4:1],,,,,,,,,,
{16}
5x,,,2x/8x,,,4x,,
{8}
Ch[1:1],,,,{16}E4,,,B3,,,B2,,,,,,,,E8,,B7,,,B6,,,E6,,Ch[2:1],,,,,,,,,,,,,,A1,A2,A3,,,,,,,,,,,,,,,,7h[2:1],,,,,,,,3,,,,,,,,2h[2:1],,,,,,,,6,,,,,,,,8h[2:1],,,,,,,,1>4[1:1],,,,,,,,D8,,,,,,,,D6,,,,,,,,6h[2:1],,,,,,,,2,,,,,,,,3h[2:1],,,,,,,,7,,,,,,,,5h[2:1],,,,,,,,1>2v3<4[1:1],,,,,,,,E8,,,,,,,,E6,,,,,,,,
7-5[4:1],,,,1,,,,1,,,,1,,,,8-4[4:1],,,,1,,,,1,,,,1,,,,8,,,,83,,,,8,,,,85,,,,8,,,,87,,,,1,,,,17,,,,2,,2,,3,,3,,4,,4,,5,,5,,6,,6,,7,,7,,8,,8,,1,,1,,2x,3x,4x,5x,6x,7x,8x,1x,2x,3x,4x,5x,6x,7x,8xv5b[8:5],1x,2xbv5b[8:4],,,,,,,,,,,,,,,,
1b/2b,,3,,45,,6,,1x/7x,,2,1,,7,8,,5x/6x,,7,,18,,2,,3x/5x,,6,5,,3,4,,
1x/6x,,2,,38,,7,,1x/6x,,7,8,,2,1,,4x/7x,,6,,52,,3,,4x/7x,,6,5,,3,4,,
2x/4x,,3,,75,,6,,1x/5x,,2,4,,6,5,,7x/5x,,6,,24,,3,,8x/4x,,7,5,,3,4,,
35,,6,5,7,,3,4,2,,7x,8,7,8,7,,6,,3,4,2,,6,5,7,,2x,1,2,1,2,,8b/3b,,,,3xh[8:1],,,,3xh[8:1],,,,3xh[8:1],,,,7x/1x,,,,6xh[8:1],,,,6xh[8:1],,,,6xh[8:1],,,,1x/8x,,,,2h[8:1]/7h[8:1],,,,2h[8:1]/7h[8:1],,,,2h[8:1]/7h[8:1],,,,3h[8:1]/6h[8:1],,,,3h[8:1]/6h[8:1],,,,3h[8:1]/6h[8:1],,,,3h[8:1]/6h[8:1],,,,4,,4,,5,,5,,3,,3,,6,,6,,4x,5,4,5,4,5,4,5,4,5,4,5,4,5,4x,,E6,,,E4,,,E7/D7,,,D3/E3,,,C,,,1xq5[2:1]/8xq5[2:1],,,,,,,,,,,,,,,,,
7x/3x,,5,,26,,4,,1x/5x,,3,4,2,,6,5,7x,,3,,25,,6,,4x/7x,,2,1,3,,7,8,
6x,,2,,35,,7,,4x/8x,,6,4,,4,8,,1x-5[8:1]/6xh[4:1],,,,,,7x,,4xb/8x,,,5xb/2x,,,3xb/7x,,
7<4[4:1],,4v1[4:1],,4v7[4:1],,,,,,,,,,,,2>5[4:1],,5v8[4:1],,5v2[4:1],,,,,,,,,,,,
65,,3,4,2h[8:1],,6,5,7h[8:1],,2,1,2,1,3,,3v8[8:1],,,,7-4[8:1],,,,2-5[8:1],,,,2b/7x,,,,7x,1,7,1,6x,2,6,2,5-1[8:1],,,,15,,,,2x,8,2,8,3x,7,3,7,4-8[8:1],,,,84,,,,71,,3,5,2,,6,4,7,,1,8,1,8,1hb[8:3],,,,,,,,8,1,7b,,,2b,,,18,,1b/8b,,3,,18,,6,,18,,4,,18,,5,,18,,3,,6,,18,,3,,6,,18,,18
,,1x,2,3,4,8x,7,6,5,2,7,2,7,1,8,1,8,1x,2,3,4,8x,7,6,5,1,8,1,,2b>4[8:1]/7b<5[8:1],,2b/7b,,
,
&inote_5=(155.55){1},
{32},
{4},
(155)
{4}
,
{16}
,,
74,,1xh[8:1]/6xh[8:1],,,7xh[8:1]/4xh[8:1],,,3x/5x,,Cf/8xhb[8:7],,,,,,,,
3x,,,2x,,,1xh[4:2],,,,,,,,5,,2h[16:3],,,7h[16:3],,,4h[4:6],,E1f/D1/A8/A1,,
,,,,,,E2,,,,B7,,B5,,,,,,,,
{24}5x,6x,7x,{16}8xbh[8:1]/2xbh[8:1],,,4xh[8:1]/5xh[8:1],,,1x/6x,,
3xbh[8:7]/Cf,,,,,,,,1x,,,8x,,,7xh[4:2],,,,,,,,1x,,6h[16:3],,,3h[16:3],,,
8h[4:6],,E5f/D5/A5/A4,,
,,,,,,E6,,,,B3,,B1,,,,,,,,2,,3xhb[8:1]/7xhb[8:1],,,5xh[8:1]/6xh[8:1],,,
1x/7x,,8xhb[8:3]/3xb,,,,2,,2h[2:1],,,,7,,6,,5h[8:7],,,,1,,2,,1,,2,,3,,4h[4:1],,,,
7xbh[4:1],,,,5,,5h[2:1],,,,8,,7x,,6xh[8:4],,,,,,,,{24}5x,4x,3x,
{16}2xbh[8:1]/8xhb[8:1],,,3xh[8:1]/4xh[8:1],,,1x/7x,,4xhb[4:1]/5xb,,,,
6,,6h[2:1],,,,2,,3,,2h[8:7],,,,7,,6,,5,,6,,7,,6h[8:1],,2,,1b-6>1[2:3]/8b-3<8[2:3],,,,,,,,,,,,,,,,,,,,,,,,,,,,,,,,
{8}
2-5-8[2:1]/7-4-1[2:1],,,,,,,,1s5[4:1]/8z4[4:1],,,,,,3x/6x,,
{16}
4b/8b,,,,
6xh[16:1],5h[16:1],7h[16:1],5h[16:1],6h[8:1],,2h[8:1],,
7xh[16:1],8h[16:1],6h[16:1],8h[16:1],7h[8:1],,
1xh[16:1],8h[16:1],2h[16:1],8h[16:1],1h[8:1],,
6xh[16:1],5h[16:1],7h[16:1],5h[16:1],6xh[4:1],,,,2b,,,,
4xh[16:1],5h[16:1],3h[16:1],5h[16:1],2h[8:1],,6h[8:1],,
3xh[16:1],4h[16:1],2h[16:1],4h[16:1],1h[8:1],,
6xh[16:1],5h[16:1],7h[16:1],5h[16:1],8h[8:1],,
2xh[16:1],4h[16:1],1h[16:1],4h[16:1],8xh[4:1],,,,4b,,,,
2xh[16:1],1h[16:1],3h[16:1],1h[16:1],2xh[8:1],,7h[8:1],,
5xh[16:1],6h[16:1],4h[16:1],6h[16:1],5xh[8:1],,
8xh[16:1],1h[16:1],7h[16:1],1h[16:1],8xh[8:1],,
2xh[16:1],1h[16:1],3h[16:1],1h[16:1],4xh[4:1],,,,8b,,,,
3xh[16:1],4h[16:1],2h[16:1],5h[16:1],1xh[8:1],,6xh[8:1],,
8xh[16:1],7h[16:1],1h[16:1],6h[16:1],
2x-4[16:1],,,8x-6[16:1],,,1x-3[16:1],,,7x-5[16:1],,,1x-5[12:1],,,,
Cf,,,,7x,,,,38,,3,5,,6,4,,16,,2,,38,,5,5,4,,2,1,,7,8,,1x>7[4:3],,2,,3x/1x,,,,
E1,,,B2,,,E4,,D5,,,,8x,,2,,7h[16:3],,,1h[16:3],,,5h[16:6],,B1/B2/E2f,,,,3x,,,,
24,,6,5,,2,4,,17,,6,,25,,3,3,4,,7,8,,4,6,,3x/8x<2[4:3],,7,,8x/6x,,,,
B8,,,E7,,,D6,,D5,,,,1x,,7,,2h[16:3],,,8h[16:3],,,4h[16:6],,B8/B7/E8f,,,,8x,,,,
57,,3,4,,7,5,,16,,2,,37,,6,6,5,,3,1,,7,8,,26,,3,,48,,7,,6,1,,3,8,,2,,
{24}
6x/E2,E3,E4,E8,E7,E6,D2,D3,D4,D8,D7,D6,
{16}
1xb[8:1],,,4xh[8:1]/7xh[8:1],,,3x/5x,,8xbh[1:2]/Cf,,,,,,,,
E2,,,E3,,,E4,,,,,,,,D7,,E6,,,E5,,,E4,,Ch[1:1],,,,,,,,,,,,,,B2/B6,B3/B7,B4/B8,,,,,,,,C,,,,,,,,
{8}
1x>8z4>1[8:25]/8x,,,,E1,,,,E8,,,,E7,,,,E6,,,,A5,,,,A6,,,,
{16}
A7,,,B1,,,B3,,
{8}
8x<1s5<8[8:25],,,,E1,,,,E2,,,,E3,,,,E4,,,,A4,,,,A3,,,,
{16}
A2,,,B8,,,B6,,
{8}
1x-3[8:1],,8,,7x-1[8:1],,6,,5x-7[8:1],,4,,3x-5[8:1],,2,,
1xV35[8:5],,6,,7,,8,,1xV75[8:5],,4,,3,,2,,
1x,1h[4:1],2x,2h[4:1],3x,3h[4:1],4x,4h[4:1],5x,5h[4:1],6x,6h[4:1],7x,7h[4:1],8x,8,
{16}
1x,1x,2,2,3,3,4,4,5,5,6,6,7,7,8,8,
{8}
1xbh[4:1],,7x,
{24}
1x,2,3,6x,5,4,3,2,1,
{8}
8x/4xb,,
{16}
1b/6b,,3,5,1,4,2,8,3x,,7,8,,2,1,,
4x/7x,,6,4,8,5,7,1,6x,,3,4,,6,5
,,
2x/4x,,3,5,1,7,4,6,2x,8,5,7,2,,8x,,
7x/5x,,6,4,8,2,5,3,7x,1,4,2,7,3,4x,,
2b/5b,,4,5,2,4,3,1,5x,,6,5,,3,4,,
4x/7x,,5,4,7,5,6,8,4x,,3,4,,6,5,,
1x/4x,,2,4,1,3,2,8,1x,7,5,6,4,,1x,,
8x/5x,,7,5,8,6,7,1,8x,2,4,3,5,1,8x,,
{8}
3x/4x-8[8:1],5,{48}4x/3x,D3,A2,D2,A1,D1,{8},1x/7x,
{16}
2,5,,4,
{8}
7,5x-1[8:1]/6x,4,{48}5x/6x,D7,A7,D8,A8,D1,{8},8x/2x,
{16}
7,4,,5,
{8}
2,8x-4[8:1]/7x,1,{48}8x/7x,D7,A6,D6,A5,D5,{8},
3x/5x,
{16}
1,6,,8,
{8}
3,1x-5[8:1]/2x,8,{48}1x/2x,D3,A3,D4,A4,D5,{8},
6x/4x,
{16}
8,3,,1,
{8}
6,
2x/5x-1[8:1],5,5x/2x,2,{48}1x-6[8:1]/2x,D3,A3,D4,A4,D5,
{8}
1,1x/3x,3,{48}3x/5x-8[8:1],D3,A2,D2,A1,D1,
{8}
5,5x/2x,2,{48}2x/1x-6[8:1],D3,A3,D4,A4,D5,
{8}
1,1x,3x,
{16}
2xb-5b[16:1],,,8xb-4b[16:1],,,1xb-5b[16:1],,,7xb-4b[16:1],,,1xbw5b[8:1],,,,,,,,,,
62,,3h[8:1]/8h[8:1],,,1h[8:1]/7h[8:1],,,4x/6x,,
2b/5b,,
3x,5,2-5[8:1],1,3,4,2x,,6,4x,,3,5,,4x/7x,,
6x,4,7-4[8:1],8,6,5,7x,,3,5x,,6,4,,2x/5x,,
3x,4,1-5[8:1],7,3,8,1x,,6,4x,,3,1,,8x-4[8:1]/2x,,
7,,8/2-5[8:1],,1,,2xb,,,6b,,,7b/4b,,5b/2b,,
2x,8,3-8[8:1],4,2,1,3x,,7,1x,,6,8x,,1x/6x,,
7x,1,6-1[8:1],5,7x,8,6x,,2,8x,,3,1x,,3x/8x,,
2x,8,4-8[8:1],6,2,5,4x,,7,1x,,2,4,,1x-5[8:1]/7x,,
2,,1/7-4[8:1],,8,,7xb,,,3b,,,2b/5b,,4b/7b,,
2x,4,1-6[8:1],8,3,5,1x,,7,5x,,4,6x,,2x/5x,,
7x,5,8-3[8:1],1,6,4,8x,,2,4x,,5,3x,,7x/4x,,
6x,4,7,5,6,8,4,2,1>6[8:3],3,5,2,1x,,,,,,,,
2xb/7xb,2xb/7xb,1xb/8xb,,,2b/4b,,,3b/8b,,1b/6b,,
2x,8,4-7[8:1],5,1,7,4x,,6,8x,,1,7x,,3x/8x,,
7x,1,5-2[8:1],4,8,2,5xb,,,1xb/3xb,,,8xb/6xb,,
2b,5,4,7,
2,8,5,6,
1,8,3,5,
4,6,8,
5,3,1,
2,4,1,
6,3,8,
4,6,1,
4,2,7,
3,5,8b-5b[3:5]*z4b[3:5],
