&title=アンビバレンス[SD]
&artist=すりぃ×相沢
&first=0.01
&des=Jimmit_x
&des_5=Jimmit_x
&lv_5=13+
&inote_5=(187){4},,,,2/7-3[8:1],
7/8,{8}2,6/4>1[8:1],,7<4[8:1],
,2<7[8:1],,5-1[8:1],,3,{4}3,
8/2-6[8:1],2/1,{8}7,3/5<8[8:1],,2>5[8:1],
,7>2[8:1],,4-8[8:1],,6,{4}6,
2-5[8:1]/6-1[8:1],2/6,{8}8,2/7-3[8:1],,8-4[8:1],
,1-5[8:1],,2>6[8:1],,8,{4}8,
7-4[8:1]/3-8[8:1],7/3,{8}1,7/2-5[8:1],,7b-3[8:1],
,1b-5[8:1],,8b<2[4:1],,1b,{4}1,
{2}3h[4:5],{4}4,4,
5,6,7/4,{8}6,3,
{4}5h[4:5],4,6,6,
7,8,5/2,{8}3,5,
{4}4/6<1[8:1],2,3-6[8:1],{8}7,7h[4:1],
,5,4/6,3,{4}5/2pp3[4:1],7,
{8}8-4[8:1],8,{4}3,{8}2-7[8:1],2,6,5<3[4:1],
,4,{4}4,5w1[8:1],5b,
3-8[8:1]/7-4[8:1],3/7,{8}2/6,5,3,2/1-5[8:1],
,7,{4}7<4[8:1],3,{8}1,5/2h[4:1],
,4,3/5,6,{4}7/8-4[8:1],{8}2,2>5[8:1],
,6,{4}6,{2}7-3[8:1]/3-5[8:1],
{4}8/2-4[8:1],6/2,{8}6-8[8:1],6,1,1,
,3,{4}6/4q5[4:1],{2}5<4[4:1],
{8},8,4/7,3,5/2,6,{4}3/7h[4:1],
{8}3,6pp5[8:3]/4qq5[8:3],,,,,,,{4}7/2>6[4:1],
6p1[4:1],{8}7,7,8,8-5[8:1]*-6[8:1],
,8-3[8:1]*-2[8:1],,8,,5,{4}6/2,
3/7<3[4:1],{8}3q8[4:1],2,{4}2,{8}1,1v4[8:1]*-3[8:1],
,1v6[8:1]*-7[8:1],,1,,4,{4}7/3,
1>3[4:1],3<5[4:1],5<8[4:1],8>3[4:1],
3V57[4:1],7V13[4:1],3<7[4:1],7,
8-4[8:1],{8}8/3,2-6[8:1],,2/5,,4/7h[8:3],
{32},,,,,,,,,,,,,,,,1,8,7,6,5,4,3,2,{4}8-4[8:1]/1s5[8:1],
1b/8b,{8}2/7,6,5/4,3,2/6-2[8:1],1,
{4}8>3[8:1],8/4-8[8:1],4/2-6[8:1],1/2,
7-4[8:1]/3v8[8:1],3/7,6/2h[4:1],{8}1,8/2>5[8:1],
,6,7-3[8:1],8,{4}1-4[8:1]*-6[8:1],1b,
7<4[8:1]/3-8[8:1],3/7,{8}5/2,3,6/4,7,
{4}8-4[8:1]/2-4[8:1],8-6[8:1]/2-6[8:1],2/8w4[8:1],8,
6/2-6[16:3],{8}2/6V41[4:1],7,,8-4[8:1],,8b/2>7[4:1],
{16},,,,,,,,8,1,2,3,6/4,7,8,1,
{2}2/4b<3[2:3],8h[4:1],
6h[4:1],4h[4:1],
5>6[2:3],1h[4:1],
3h[4:1],5h[4:1],
{4}7/4qq1[4:3],7,6,6,
5pp8[4:3],2,3,3,
{8}4,3,2/5,6,7/4,3,2/6,7,
1h[8:3]/8h[8:3],{16},,,,,,,,8/1,7/2,{4}6b/3bV16[4:1],
{2}6V83[4:1],{6}4,{12}4,5,,5,
{6}7,{12}7,1pp8[4:1],,,{2}8<2[4:1],
{12}8,8,8,1/7h[4:1],,,{6}5,{12}5,4,,4,
{16}2,,,2,{4}1w5[8:1],{2}1b,
{4}4/7v4[6:1],3,{6}1,{12}1,7,,7,
{6}5,{12}5,4pp2[4:1],,,{2}2<4[4:1],
{4}2-7[8:1],7/2,6<2[8:1],2/6,
4>7[16:3],7/4,5<2[16:3],2/5,
{1}4bV62[8:9]*s8[8:9],
{4},,,,6-1[8:1]/2-5[8:1],
6/2,{8}7/3,4,6,7/8-4[8:1],
,2,{4}2>5[8:1],6,{8}8,4/7h[4:1],
,5,6/4,3,{4}2/1-5[8:1],{8}7,7<4[8:1],
,3,{4}3,{2}2-6[8:1]/6-4[8:1],
{4}1/7-5[8:1],3/7,{8}3-1[8:1],3,8,8,
,6,{4}3/5p4[4:1],{2}4>5[4:1],
{4}3-5[8:1],{8}8,8,{4}7-3[8:1],{8}5,5>1[16:3],
,6,{4}6,3/7,{16}8,1,8,1,
{8}7b-4[8:1],7,{4}2,{8}3,5<8[8:1],4,5>2[8:1],
,5-1[8:1],,5,,8/2,,7/3,
6-1[8:1],6,{4}4,{8}2-5[8:1],2,{4}7,
6<1[4:1],1>4[4:1],4<7[4:1],1,
{8}3,3,5,5,{16}4b,6,4,6,4,6,4,6,
3b,5,3,5,3,5,3,5,2b,4,2,4,2,4,2,4,
1b,,,4/3,,,{8}6/5,{16}8b/2,,,5/7,,,{8}4/3,
1b/8h[4:7],{16},,,,,,,,,,,,2,3,
{1}4h[4:3],
8v6[8:27]/4v2[8:27],
{4},,,,,,,,,,,,5qq6[4:3],
1,1,1,
1qq2[4:3],5,5,5,
5p7[2:1],2,2,2,
{8}1b/8b,7b/2h[8:3],{32},,,,,,,,8,7,6,5,4,3,2,1,{4}8w4[8:1],
8b,{8}7/2,3,4/5,6,7/3-7[8:1],8,
{4}1<6[8:1],1/5p1[8:1],5/7p3[8:1],8/7,
2-5[8:1]/6v1[8:1],6/2,3/7h[4:1],{8}8,1/7<4[8:1],
,3,2-6[8:1],1,{4}8-5[8:1]*-3[8:1],8b,
2>5[8:1]/6-1[8:1],6/2,{8}4/7,6,3/5,2,
{4}1p5[8:1]/8<5[8:1],8q4[8:1]/1>4[8:1],8/1w5[8:1],1,
3/7-3[16:3],{8}7/3V58[4:1],2,,1-5[8:1],,1b/7<2[4:1],
{16},,,,,,,,1,8,7,6,3/5,2,1,8,
{2}7/5b>6[2:3],1h[4:1],
3h[4:1],5h[4:1],
4<3[2:3],8h[4:1],
6h[4:1],4h[4:1],
{4}4/2h[4:1],4,3/5h[4:1],3,
6/4h[4:1],6,5/7h[4:1],5,
{8}4/6,5,4/7,3,5/2,6,7/3,2,
1h[8:3]/8h[8:3],{16},,,,,,,,8/1,2/7,{4}3b/6b,
6/4-8[8:1],4<7[8:1],4>1[8:1],4-7[8:1],
4-1[8:1],4V68[8:1],4V28[8:1],4-8[8:1],
4,7/3h[4:1],{8}6,4,5/3,2/6p4[16:5],
,2,2,1,{4}1<6[8:1]*>4[8:1],1,
5-1[8:1],5>2[8:1],5<8[8:1],5-2[8:1],
5-8[8:1],5V31[8:1],5V71[8:1],5,
4h[4:1],{8}6,7p3[8:1]/3-8[8:1],,3/7<8[8:3],,4h[8:3],
,,,,7/3,6,{4}2b/5b,
7-3[8:1],8-4[8:1],1-5[8:1],2-6[8:1],
3-7[8:1],4-8[8:1],5,1/6<3[4:1],
5,5,4/7h[4:1],{8}8,1/7<4[8:1],
,3,2-6[8:1],1,{4}8v3[8:1]*v5[8:1],8,
2b/6b-3[8:1],{8}6/2-5[8:1],2,8-4[8:1],8,2-6[8:1],2,
7-4[8:1],7,3-8[8:1],3,6-3[8:1],6,2,2,
{4}1q5[8:1],{8}1/6,7q3[8:1],,7/4w8[8:1],,4,
,5/3,2,1,8/7,6,{32}5,4,3,2,1,8,7,6,
{4}5-1[8:1]/4z8[8:1],5b/4b,{8}2,3/7-3[8:1],,7/8-4[8:1],
,8/1-5[8:1],,1/2>6[8:1],,8,{4}8,
7-4[8:1]/3v8[8:1],7/3,{8}1,7/2-6[8:1],,2/1-5[8:1],
,1/8-4[8:1],,8/7<3[8:1],,1,{4}1,
7/2-6[8:1],2/1,{8}7,3/5<8[8:1],,2>5[8:1],
,7>2[8:1],,4-8[8:1],,6,{4}6,
1/7-3[8:1],7/8,{8}2,4/6,,2h[8:1]/6h[8:1],
,1h[8:1]/5h[8:1],,4V61[16:3]/8V25[16:3],,4b/8b,
E
