&title=Cradle Your Moments
&artist=Halv & Reku Mochizuki
&first=0.302
&des=ccy
&lv_5=14
&inote_5=(92.5)
{4}5h[4:1],4h[4:1],
{8}7h[4:1],E5/B5,E4/B3,1h[4:1],B6/E6,B4/E5,8h[4:1],E5/B5,E4/B3,2h[4:1],B6/E6,B4/E5,
{16}7h[8:1],,E5/B5,7x,E4/B3,,1h[8:1],,B6/E6,1x,B4/E5,,
{16}8h[8:1],,E5/B5,8x,E4/B3,,2h[8:1],,B6/E6,2x,B4/E5,,
{16}7<5[8:1],,E5/B5,,E4/B3,,2>4[8:1],,B6/E6,,B4/E5,,
{16}8h[8:1],,E5/B5,8x,E4/B3
,,1h[8:1],,B6/E6,1x,B4/E5,,
{16}8x,7x,6x,5x,{24}4x,3x,2x,{32}1x,8x,7x,6x,{96}5x,,,,4x,,,,,3x,,,,,,,2x,,,,,,,,
{48}8bx-5-8-3-8[1:1],7x,6xh[48:58],,,,,,,,,,{1},{8},A6/B6/C/B2/A2,
{16}3/5,,3,4,2,,2>5[16:1]/8,,8-4[16:1]/2,,2,,8,,B1/B2/E2,,
{16}3/5,,3,4,2-6-8[8:1],,2/8>4[8:1],,2/8,,,,B1/B2/E2,,5,5,
{16}6/4,,6,5,7,,7<4[16:1]/1,,1-5[16:1]/7,,7,,1w5b[16:1],,B8/B7/E8,,
{16}1b,,,3bv8[16:1]/7bv4[16:1],,2b/6b,,3b/7b,,B5,B4,,{32}7,6,5,4,3,2,1,8,
{16}7xb/3,,3-6[16:1],5,2,,3/7<4[16:1],,1-5[16:1]/8,,7,,1,,E8/B7/B8/3x,,
{16}2/6,,6-3[16:1],4,7,,6/2>5[16:1],,8-4[16:1]/1,,2,,8,,2/6,2v1[16:1]/6v7[16:1],
{16}3bh[8:1]/5bh[8:1],,,C,,,7/3,7v6[16:1]/3v4[16:1],2bh[8:1]/8bh[8:1],,,C,
{16},,2/6,,2/6,3,4/5,6,7/1,7/1,{32}2,8,2,8,4h[4:1],,,,,,,,{32}A2,B2,C,B6,{16}A6/3,3-5[16:1],
{16}3,,7-1[16:1],7,,2-4[16:1],2,,6V84b[8:1],6,,,6b/1b,,,,
{16}7h[8:1]/1,,1,5h[8:1]/6,,6,8h[8:1]/2,,2-8[16:1]*-5[16:1],3h[8:1]/4h[8:1],,,2b,,7,7,
{16}7/3,,3,B4/E5,,B6/E6,4,4,2/6,,7,B5/E5,8w4b[16:1],B3/E4,7/1,,
{16}8b,,,6bv1[16:1]/2bv5[16:1],,7b/3b,,6b/2b,,B4,B5,,6/4,6/4,3,3-1[16:1],
{16}3,,7-5[16:1],7,,4-2[16:1],4,,8-5[16:1]*z4[16:1],8,,,8b,,,,
{16}2h[8:1]/8,,8,4h[8:1]/3,,3,1h[8:1]/7,,7-3b[16:1],6h[8:1]/5h[8:1],,,7b/1b,,2,2,
{16}2/6x>1[16:3],,1,1xV75[8:1],1,,E6/B5/B6,,2-8[16:1]*-7[16:1],2x,2-4[16:1]*-5[16:1],,2b,,2b,,
{16}7/3x<2[16:3],,8,8x,8,,E4/B4/B3,,{32}6,4,6,4,5,3,5,3,{48}7bx,6,5,2bx,3,4,8bx,7,6,1bx,2,3,
{24}7h[8:3],,,E6,E5,E4,E3,E2,E1,E8,,,1h[8:3],,,E3,E4,E5,E6,E7,E8,E1,,,
{32}A3,E4,E5,A5,B2,C,B6,A6,A8,E1,E2,A2,B7,C,B3,A3,{4}5xh[1:1],,Ch[2:1],,,,
{8}5,,4,,6h[8:24],,B4,B6,,B5,B3,,B4,B6,,{16}E5,E4,E3,,,B4,,,E7,,,B5,,,E3,,,B3,B2,,E5,,,B5,B4,,
{16}2h[8:12],,,,E4,E5,E6,,,,E8,,B6,,,B5,,,E4,,,,E6,,Ch[8:6],,,,,,,,,,,,
1h[16:1],,1h[16:1],,1h[16:1],,2/8,2/8,3/7,3/7,4b/6bpp5[8:1]*p4[8:1],,
{48}4/6,3,2,1,8,7,,,,,,,{16}A4/A5/E5f,,2/8,2/8,3/7,3/7,4b/6bpp5[8:1]*p4[8:1],,
{48}4/6,3,2,1,8,7,,,,,,,{16}A4/A5/E5f,,2/8,2/8,3-7[16:1]*-8[16:1]/7,3/7,4b/6b,,
{16}3bqq4[8:1],,5/6,6h[8:1],3,,7pp6[8:1],,6/2,,7/3,,E4f/B4/B3,,6/5,5/4,4/3,2,
{16}1/7,7/1,2-5[16:1]/6-8[16:1],,4/3,4/3,
{16}6/2,,3-1[16:1]/7-4[16:1],,6/5-8[16:1],6/5,7/3-7[16:1],,5x,,3x,,
{64}2xbh[8:1]/8xb,7x,6x,5x,4x,,,,,,,,7xbh[8:1]/1xb,2x,3x,4x,5xqq5[8:1]*pp5[8:1],,,,,,,,1xb,2x/8x,3x/7x,4x/6x,5x,,,,
{16},,,,
{32}7,5,6,4,5pp4>7[4:1],3,4,2,8,1,6,2h[32:5],5x,,,,,,,,E4f/B4/B3,,,,
{32}2,4,3,5,4qq5b[8:1],6,5,7,1,8,3,7h[32:5],4x,,,,,,,,5b/3bqq4[8:1]*q5[8:1],,,,
{48}5/3,6,7,8,1,2,,,,,,,{16}A5/A4/E5f,,7/1,7/1,6/2,6/2,5b/3bqq4[8:1]*q5[8:1],,
{48}5/3,6,7,8,1,2,,,,,,,{16}A5/A4/E5f,,7/1,7/1,6-1[16:1]*-2[16:1]/2,6/2,5b/3b,,
{16}6xb>6[2:1],,,B6/E7,,,B4/E5,,,B2/E3,,,
{16}B8/E1f/B1,,4w8b[16:1]/6,,3/5,,D4/A4f/D5,,7x/8x<5[16:1],,8-4[16:1]/2,2/8,
{16}2/8-3[16:1],,2/8-5b[16:1],,2/8-4b[16:1],,6x/8x>3b[16:1],,6/8,,6/8,,
{64}7xbh[8:1]/1xb,2x,3x,4x,5x,,,,,,,,2xbh[8:1]/8xb,7x,6x,5x,4x,,,,,,,,
{64}6xbh[8:1]/8xb,1x,2x,3x,4x,,,,,,,,3xbh[8:1]/1xb,8x,7x,6x,5x,,,,,,,,
{16}2-8[16:1]/4,3,4/6,5,2x/4x,,2-6[16:1]/4,3,4/6,5,2x/4x,,2-8[16:1]/4,3,4/6,5,2x/4x,,2/4,3,5,6/1,2,8,
{16}7-1b[16:1]/5,6,5/3,4,7x/5x,,7-3b[16:1]/5,6,5/3,4,7x/5x,,7-1b[16:1]/5,6,5/3,4,7x/5x,,7/5,6,4w8b[16:1],3/8,7,1,
{8}4bx>5-2-7[1:1],,,,,,,,7-4-1<2b[1:1],,,,,,,,2<3-8-5[1:1],,,,,,,,5-2-7<4b[2:1],,,,Ch[8:3],,,{32}5,6,7,8,
{16}1b/2bV41[8:1],8,1-5[16:1]/7bh[8:1],,2x<4b[8:1],,4x,,2x,,E1f/B1/B8,,5x/6x,5x/6x,7/3,,
{16}8bqq1[8:1]/2b,7,1>4[16:1]/6bh[8:1],,8x,,B5/B4/E5f,,5x/7,6/4,5/3,1x,6/4,5/3,4/2,8x,
{16}1b-6-3[8:1]/7b,6,5bh[8:1]/3-8-5[8:1],,1x,,,,7x,6/5x,5/4,4/3,8,7/5,6/4,5/3,
{16}1b/2x,8,7bh[8:1]/5x,,5-1b[16:1],6x/4bh[8:1],,6-2b[16:1],5x/7x,7,7,6x/4x,4,4,8b/3b,,
{16}8b/7bV58[8:1],1,8-4[16:1]/2bh[8:1],,7x>5b[8:1],,5x,,7x,,E1f/B8/B1,,4x/3x,4x/3x,2/6,,
{16}1bpp8[8:1]/7b,2,8<5[16:1]/3bh[8:1],,1x,,B4/B5/E5f,,4x/2,3/5,7x,3/5,4/6,8x,4/6,1x,
{64}2hxb[8:1]/8xb,7x,6x,5x,4x,,,,,,,,7hxb[8:1]/1xb,2x,3x,4x,5x,,,,,,,,
{64}3xbh[8:1]/1xb,8x,7x,6x,5x,,,,,,,,6xbh[8:1]/8xb,1x,2x,3x,4x,,,,,,,,
{96}8bxw4b[16:1]/2bx,7x/3x,6x/4x,5x,,,,,,,,,1bx/7bx,2x/6x,3x/5x,4x,,,,,,,,,
{16}8bx,,5x/3x,5/3,6/4,6/4,5/2,7/4,{32}1x,5,1,5,3,7,3,7,
{64}4bxpp4qq4[4:5],5,6,7,8,1,2,3,4,5,6,7,8,1,2,3,
{8}8xhb[4:5]/4,,,,,,,,,,,,
{8}5,,4,,6h[8:24],,B4,B6,,B5,B3,,B4,B6,,{16}E5,E4,E3,,,B4,,,E7,,,B5,,,E3,,,B3,B2,,E5,,,B5,B4,,
{16}2,,,2h[16:9],,,D4,,B4,,B6,,D7,,,,,,6h[16:3],,,1,,,7,,,7h[16:9],,,D6,,B5,,B3,,D3,,,,,,3h[16:3],,,8,,,
{16}2,,,2h[16:9],,,D4,,B4,,B6,,D7,,,,,,6h[16:3],,,1,,,7,,,7h[16:21],,,,,,,,,,,,,,,,,,,,,6-1-4[4:1],,,,Ch[4:1],,,,,,,,
