&title=ENDLESS DREAM -GC Mix-
&artist=SHIKI feat. 初音ミク
&first=0
&lv_5=13
&des=软糖酱
&des_5=软糖酱
&inote_5=
(184){4},,,,{1}5/3>6[2:3],
,4/6<3[2:3],
{8},,,,,,,,5h[4:1],
,,5h[4:1],,,{4}5h[4:1],
{8},4,,6,{4}5,8,
{8}4h[4:1],,,4h[4:1],,,{4}4h[4:1],
{8},5,,3,{4}4,1,
7-4[8:1],{8}3,1-5[8:1],,5,{4}7-3[8:1],
{8}4,2-5[8:1],,7,{4}8-4[8:1],8/1,
2-5[8:1],{8}6,8-4[8:1],,4,{4}2-6[8:1],
{8}5,7-4[8:1],,2,{4}1-5[8:1],1/8,
{8}8/7<4[8:1],,,3>8[8:1],,,{4}6>3[8:1],
{8},1>4[8:1],,8,{4}8w4[8:1],8,
{8}1/2>5[8:1],,,6<1[8:1],,,{4}3<6[8:1],
{8},8<5[8:1],,8,4,{16}4,6,3,7,2,8,
{8}1h[4:3],,,3b,,,{4}6b,
{8}8b-3[8:1],8b-5[8:1],,,,2,{16}5,4,5,4,
{4}5b,3h[4:1],{8}6>3[8:1],6,,2<7[8:1],
,,{4}5>2[8:1],5<8[12:1],5qq1[2:1],
5,,,7V53[4:1],
{8}1,,,2>5[8:1],,,{4}6<1[8:1],
{8}4>1[8:1],,,6qq1[8:5],{2}2qq5[8:5],
{4},,7b,4-1[8:1],
{8}5,,,8,{4}1-4[8:1],1p6[8:3],
{8}3,,,5,{16},,4,6,3,7,2,8,
{8}1,7,{4}7-4[12:1],{6}7/1,3/5,8/2,
{24},,,{8}1,{4}1-4[12:1],{6}1/7,5/3,8/6,
{24},,,{8}2,{4}2-5[12:1],{6}2/8,6/4,1/7,
{24},,,{8}8,{4}8-5[12:1],{6}8/2,4/6,1/3,
{24},,,{8}7,{4}7-4[12:1],{6}7/8,3/5,1/2,
{24},,,{8}8,{4}8-3[12:1],{6}8/7,4/2,6/5,
{24},,,{8}2,{4}2-5[12:1],{6}2/1,6/4,8/7,
{24},,,{8}6/1,{4}7/2,{8}5/4,{16}4,6,3,7,2,8,
{8}1,1,1,1,1,1,1,1,
7/8b,7,7,7,7,7,7,7,
5/6b,5,5,5,5,5,5,5,
6b/7,7,7,7,7,7,7,7,
1b,7/8,6,5/4,3,2h[8:1],1,1/2,
3,4/5,6,7h[8:1],8,8/7,6,5,
4/6b,3,1/2,3,5/4,6,8/7,1,
2/4,2,2,2,7/5,7,7,7,
{6}8b/6,5/4,{24}1b/3,,,,,,,4,,,{4}5qq1[2:1],
5h[2:1],{8},,,,7pp3[2:1],8,
6,,,5pp2[8:3],,,{4}8,
1qq5[2:1],{8},,,,4,6,
3pp8[8:3],,,7<5[8:1],,,{4}1b,
{8}3/4,7<4[8:1],8,7,,2>5[8:1],1,2,
,6<1[8:1],5,6,,3>8[8:1],4,3,
5<3[8:3],,,3<1[8:3],,,{4}1,
2,{8}8/1b,8b/1,{16},,5,4,5qq1[2:1],4,5,4,
{4}5,{8},,,,2qq6[2:1],1,
3,,,4qq7[8:3],,,{4}1,
8pp4[2:1],{8},,,,5,3,
6qq1[8:3],,,2>4[8:1],,,{4}8b,
{8}5/6,2>5[8:1],2,1,,7<4[8:1],7,8,
,3>8[8:1],3,4,,6<1[8:1],6,5,
4z8[8:3],,,8s4[8:3],,,{4}4,
5h[8:3],{8}4,3,{4}6<3[4:1],3>6[4:1],
4b,4h[4:1],{8}5,{16}5,3,6,2,7,1,
{8}8h[4:1],,,5,{2}5qq1[2:1],
{8},,,,,7,7,4,
5h[4:1]/6h[4:1],,,5,{2}5-1[8:1],
{8}2h[4:1]/8h[4:1],,,4/2h[4:1],,,{4}1b,
7h[2:1]/1h[2:1],,,6,
{8}5/7h[4:1],,,4/2h[4:1],,,{4}8b,
{8}6h[4:1]/5h[4:1],,,4/3h[4:1],,,{4}1b,
8/7,{8}6,4,,5h[4:1],{24},,,,,,{12}1,
8,2,7,3,6,4,5,3,4,2,5,
1,6,8,7,1,8,2,1,3,8,4,4,
6,5,7,4,8,3,1,2,8,1,7,2,
{8}3/5,3,6/4,6,4/3,3,{4}6/5>2[8:1],
6b/5,{8}6,1,,7/8>3[8:1],,7/8,
{4}6b,{8}3,7-2[8:1],,2,,,3h[4:1]/1h[4:1],
,,4/2h[4:1],,,{4}1b,
6/8,{8}7,7,{16}4,5,{8}4,6,1,
{4}1b,7/8,{8}6,5,,6/7h[4:1],
,,{4}8-4[8:1],1-5[8:1],2-6[8:1],
7>4[4:1],,,6/5,
{8}6/8h[4:1],,,7/5h[4:1],,,{4}6,
{8}5h[4:1]/4h[4:1],,,6qq1[8:5],{2}2qq5[8:5],
{4},,7b,4,
{8}3h[4:1]/1h[4:1],,,4,{4}5,6/8,
{16}1b,5,4,5,4,5,2b,5,4,5,4,5,3b,5,4,5,
{8}4-8[8:1],4,5-1[8:1],5,{24}2,3,,,,8,{8}7,5/4,
5-1[8:1],5,4-8[8:1],4,{24}7,6,,,,1,{8}2,4/5,
4p8[8:1],4,5q1[8:1],5,{24}3,4,,,,8,{8}7,5/4,
5q1[8:1],5,4p8[8:1],4,{24}6,5,,,,1,{8}2,4/5,
8-4[8:1],8,1-5[8:1],1,{24}6,7,,,,4,{8}3,1/8,
1-5[8:1],1,8-4[8:1],8,{24}3,2,,,,5,{8}6,8/1,
1q5[8:1],1,8p4[8:1],8,{24}3,2,,,,5,{8}6,8/1,
{16}3b,5,4,5,4,5,2b,5,4,5,4,5,1b,5,4,5,
8b-4[8:1],,,,,5b-1[16:23],,,{2}5h[2:3],
E
