&title=Astra walkthrough
&artist=paraoka
&first=-0.237
&des=cqxl
&des_5=cqxl
&lv_5=13+|13.8
&inote_5=(225){1},
{4}
7b/2b,7b/2b,7b/2b,7b/2b,
{4}
7b/2b,7b/2b,{8}2,4,3,5,
{8}
4,6,2,4,3,5,4,6,
{4}
2b/7b,2b/7b,2b/7b,2b/7b,
{4}
2b/7b,2b/7b,{8}7,5,6,2,
{8}
1,3,7,5,6,2,1,3,
{4}
2b/7b,2b/7b,2b/7b,2b/7b,
{4}
2b/7b,2b/7b,{8}7,5,6,4,
{8}
5,3,7,5,6,4,5,3,
{4}
7b/2b,7b/2b,7b/2b,7b/2b,
{4}
7b/2b,7b/2b,{8}2,4,3,5,
{8}
4h[4:1],,7,5,6,4,5h[4:1],,
{8}
3,5,4,6,5h[4:1],,6,4,
{8}
5,3,4h[4:1],,{2}3p6[1:1],
{4}
,5h[2:1],,,
{4}
5q2[1:1],,,3h[2:1],
{4}
,,3<7[4:3],,
{4}
,7p2[4:3],,,
{4}
2qq7[1:1],,,,
{8}
,,5-1[8:1],(450){4},
(225)
{4}
4/5,{8}2,2h[8:3],,7,7-5[8:1],,
{8}
1-3[8:1],,4-8[8:1],,{4}4/5,{8}7,7h[8:3],
{8}
,2,2-4[8:1],,{4}8-6[8:1],5-1[8:1],
{4}
4/5,{8}2,2h[8:3],,1,1-7[8:1],,
{8}
5-3[8:1],,2-6[8:1],,{4}2/1,{8}7,7h[8:3],
{8}
,8,8b-3[8:1]*-5[8:1],,{4}8b,,
{8}
7-4[8:1],,7,1-5[8:1],,1,{4}7b<3[4:1],
{4}
3b<7[4:1],7b,{8}2-5[8:1],,2,8-4[8:1],
{8}
,8,{4}2b>6[4:1],{4}6b>2[4:1],2b,
{8}
8v3[8:1],,8,2q6[8:1],,2,{4}8bV64[4:1],
{4}
4bV68[4:1],8b,{8}1v6[8:1],,1,7p3[8:1],
{8}
,7,{4}1bV35[4:1],{4}5bV31[4:1],1b,
{8}
6<1[8:1],,6,2>5[8:1],,2,{4}7bq4[4:1],
{4}
4b<7[4:1],7b,{8}3>8[8:1],,3,7<4[8:1],
{8}
,7,{4}2bp5[4:1],{4}5b>2[4:1],2b,
{8}
1v6[8:1],,1,5v2[8:1],,5,{4}7b-3[4:1],
{4}
3bV57[4:1],7b,{8}8v3[8:1],,8,4v7[8:1],
{8}
,4,{24}1,2,3,4,5,6,7,8,1,2,3,4,5,6,7,8,1,2,
{8}
3h[4:1],5,6,5h[4:1],4,3,4V25[4:1],,
{8}
5-1[8:1],,6,,6h[4:1],4,3,4h[4:1],
{8}
5,6,5V74[4:1],,4-8[8:1],,3,,
{8}
3h[4:1],4,5,6h[4:1],5,4,3V14[4:1],,
{8}
4-8[8:1],,5,,6h[4:1],5,4,3h[4:1],
{8}
4,5,6V85[4:1],,5-1[8:1],,4,,
{8}
3,,5,4/6h[4:1],,3,2b-4[8:1]/5,,
{8}
1b-5[8:1],,8b-6[8:1],,6,,4,5/3h[4:1],
{8}
,6,7b-5[8:1]/4,,8b-4[8:1],,1b-3[8:1],,
{8}
3,,5/6,4/7,,3/4,1b-5[8:1]/5,,
{8}
6b-1[8:1],,2b-6[8:1],,7,,3/4,2/5,
{8}
,5/6,4/8b-4[8:1],,3b-8[8:1],,7b-3[8:1],,
{4}
2>8[2:3],,,,
{4}
2,1,8pp6[2:3],,
{4}
,,4,5,
{4}
6>1[2:3],,,,
{4}
7,8,1q3[4:5],,
{4}
,,,,
{4}
7<1[2:3],,,,
{4}
7,8,1qq3[2:3],,
{4}
,,5,4,
{4}
3<8[2:3],,,,
{4}
2,1,8w4[4:3],,
{4}
,,,1-5[8:1],
{8}
1b<6[4:1],,4,3,2>5[4:1],,5<8[4:1],,
{8}
8>3[4:1],,3,,5,4,6,5h[8:3],
{8}
,6<3[8:3],6q3[4:1],,,,,,
{8}
6/5>1[4:1],,8,7,6<1[4:1],,1>4[4:1],,
{8}
4<7[4:1],,7,,{4}2b-5[8:1],2/6b-2[8:1],
{4}
6/3b-6[8:1],3/7b-3[8:1],7/4b-7[8:1],4/8b-4[8:1],
{8}
8>3[4:1],,5,6,7<4[4:1],,4>1[4:1],,
{8}
1<6[4:1],,6,,4,5,3,4h[8:3],
{8}
,3>6[8:3],3p6[4:1],,,,,,
{8}
3/4<8[4:1],,1,2,3>8[4:1],,8<5[4:1],,
{8}
5>2[4:1],,2,,{4}8p3[2:1],,
{4}
2,2>8[2:1],,1,
{8}
1b,,,6/4,{4}6/4-8[8:1],7<4[8:1],
{4}
1q5[8:1],6-2[8:1],4>1[4:1],1<6[4:1],
{4}
6q3[2:1],5h[2:1],,,
{8}
1>4[4:1],,8,7,{4}6v1[8:1],5>2[8:1],
{4}
8-4[8:1],1-5[4:1],5-7[4:1],7-3[4:1],
{4}
3>6[2:1],8h[2:1],,,
{8}
8,,,3/5,{4}3/5-1[8:1],2>5[8:1],
{4}
8p4[8:1],3-7[8:1],5<8[4:1],8>3[4:1],
{4}
3p6[2:1],4h[2:1],,,
{8}
8<5[4:1],,1,2,{4}3v8[8:1],4<7[8:1],
{4}
1-5[8:1],8-6[8:1],8-4[8:1],8-2[8:1],
{4}
8-6[8:1]*-6[8:1],8b-4[8:1]*-4[8:1],8b-2[8:1]*-2[8:1],8b-4[8:1],
{8}
8b>3[4:1],,5,6,7<4[4:1],,4>1[4:1],,
{8}
1<6[4:1],,6,,4,5,3,4h[8:3],
{8}
,3>6[8:3],3p6[4:1],,,,,,
{8}
3/4<8[4:1],,1,2,3>8[4:1],,8<5[4:1],,
{8}
5>2[4:1],,2,,{4}7b-4[8:1],7/3b-7[8:1],
{4}
3/6b-3[8:1],6/2b-6[8:1],2/5b-2[8:1],5/1b-5[8:1],
{8}
1b<6[4:1],,4,3,2>5[4:1],,5<8[4:1],,
{8}
8>3[4:1],,3,,5,4,6,5h[8:3],
{8}
,6<3[8:3],6q3[4:1],,,,,,
{8}
6/5>1[4:1],,8,7,6<1[4:1],,1>4[4:1],,
{8}
4<7[4:1],,7,,{4}2,5/7,
{4}
3h[384:1]/4h[384:1],(210)5h[64:1]/2h[64:1],(195)1h[32:1]/6h[32:1],(170)7h[16:1]/8h[16:1],
(225)
{8}
7<4[4:1],,3,3h[4:1],,,2p5[4:1],,
{8}
7,7h[4:1],,,8<5[4:1],,5q1[8:3],5,
{8}
,1v4[4:1],1,,3,3h[4:1],,,
{8}
2<7[4:1],,7,7h[4:1],,,6q2[4:1],,
{8}
2,2h[4:1],,,3<6[4:1],,6p2[8:3],6,
{8}
,2v7[4:1],2,,8,8h[4:1],,,
{8}
2>5[4:1],,6,6h[4:1],,,7q4[4:1],,
{8}
2,2h[4:1],,,1>4[4:1],,4p8[8:3],4,
{8}
,8v5[4:1],8,,6,6h[4:1],,,
{8}
7>2[4:1],,2,2h[4:1],,,3p7[4:1],,
{8}
7,7h[4:1],,,6>3[4:1],,3q7[8:3],3,
{8}
,7v2[4:1],7,,1,1h[4:1],,,
{4}
8/1-5[8:1],1/6<8[8:1],6/2>4[8:1],2/1qq6[8:3],
{4}
,,3-7[8:1],3/6>4[8:1],
{4}
6/2<8[8:1],2/7qq3[8:3],,,
{8}
2h[8:3],,,7h[8:3],,,5,4,
{8}
3,2/6,5,4,7>2[4:1]/3<6[4:1],,,,
{4}
,1qq7[4:1]/5qq3[4:1],,,
{4}
1/8-4[8:1],8/3>1[8:1],3/7<5[8:1],7/8pp3[8:3],
{4}
,,6-2[8:1],6/3<5[8:1],
{4}
3/7>1[8:1],7/2pp6[8:3],,,
{8}
7h[8:3],,,2h[8:3],,,4,5,
{8}
6,7/3,4,5,2<7[4:1]/6>3[4:1],,,,
{4}
,8pp2[4:1]/4pp6[4:1],,,
{8}
1-3[8:1],,1,4h[4:1],,3,2,3,
{8}
4h[8:3],7,6,5,4-2[8:1],,4,5h[4:1],
{8}
,2,1,2,3h[2:1],5,6,7,
{8}
8-6[8:1],,8,5h[4:1],,6,7,6,
{8}
5,4,3,2,{4}7b/2b,7b/2b,
{4}
2b/7b,2b/7b,2b/7b,2b-4[8:1]/7b-5[8:1],2b/7b,E
