&title=EROICA
&artist=BEMANI Sound Team ”HERO”
&first=0
&des="Kanata"さぁ、英雄になる時間だ。
&lv_5=14+
&inote_5=(200)
{1},,
{4}6h[4:3],,,
{4}5h[4:3],,,
{4}4h[4:3],,,
{4}3h[4:2],,,
{4}6h[4:3],,,
{4}5h[4:3],,,
{4}4h[4:3],,,
{4}3h[4:2],,,
{4}6<4>6[4:7],,{8},,
{4}4h[4:2],,,
{4}5h[4:3],,,
{4},{8}5,5,4>6<4[4:7]/6,,
{4}6h[4:2],,,
{4}5h[4:3],,,
{4},{8}5,5,4/6,,
{4}1/2,3<6[8:1]/4-8[8:1],3b/4b,
{8}1x>4[8:1]/7x,,6,7-4[8:1],,3,
{8}2<7[8:1],,2/6,5-1[8:1],,5/6,
{8}7<3[4:1],,3V57[4:1],,7V13[4:1],,
{8}3-5<6-1[16:5],,5,,,,
{8}8x<5[8:1]/2x,,3,2-5[8:1],,6,
{8}7>2[8:1],,7/3,4-8[8:1],,4/3,2>6[4:1],,
{8}6V42[4:1],,2V86[4:1],,6-4>3-7[16:5],,
{8}4,,,,
{8}8x>3[8:1]/6x,,6,7-3[8:1],,3,
{8}4-8[8:1],,4/5,5-7[8:1],,5/1,
{8}2<6[4:1],,6V82[4:1],,5,,
{8}4-7-1[16:4],,1,,3,,
{8}1x<6[8:1]/3x,,3,2-6[8:1],,6,
{8}5-1[8:1],,5/4,4-2[8:1],,4/8,
{8}7>3[4:1],,3V17[4:1],,4,,
{8}5-2-8[16:4],,8,,6,,
{8}7,,3,5,1-5[8:1],,
{8}1x/5,,7,3,5-7[8:1],,
{8}2/5,,3,5,1-5[8:1],,
{8}1x/5,,7,3,5-7[8:1],,
{8}2/5,,2,6,8-4[8:1],,
{8}8x/3,,2,6,4-2[8:1],,
{8}7/4,,6,4,8-4[8:1],,
{8}8x/3,,2,6,4pp2[2:1],,
{4},,8-4[8:1],
{8}2/8x,,3,5,1-5[8:1],,
{8}1x/5,,7,3,5-7[8:1],,
{8}2/5,,2,4,8-4[8:1],,
{8}8x/3,,2,6,4-2[8:1],,
{8}7/4,,6,4,8<5[8:1],,
{4}8>3[8:1],8-5[8:1],8-3[8:1],
{4}8-4[8:1],8,2/6,
{8}35,,6,4,8-4[8:1],,
{8}8x/4,,2,6,4-2[8:1],,
{8}7/4,,6,4,8-4[8:1],,
{8}8x/4,,2,6,4-2[8:1],,
{8}7/4,,7,3,1-5[8:1],,
{8}1x/6,,7,3,5-7[8:1],,
{8}2/5,,3,5,1-5[8:1],,
{8}1x/6,,7,3,5qq7[2:1],,
{4},,1-5[8:1],
{8}7/1x,,6,4,8-4[8:1],,
{8}8x/4,,2,6,4-2[8:1],,
{8}7/4,,7,3,1-5[8:1],,
{8}1x/6,,7,3,5-7[8:1],,
{8}2/5,,3,5,1>4[8:1],,
{4}1<6[8:1],1-4[8:1],1-6[8:1],
{4}1-5[8:1],1,7/3,
{8}2/7,,6,5,8>3[4:1],,
{4}3>5[2:1],5,4,
{8}2,{16}2,3,{8}4,4,4qq5[8:3],,
{4}8,7,6,
{8}7/2,,3,4,1<6[4:1],,
{4}6<4[2:1],4,5,
{8}7,{16}7,6,{8}5,5,5pp4[8:3],,
{4}1,2,3,
{8}2/7,,6,5,8<5[4:1],,
{4}5<3[2:1],3,4,
{8}5,{16}5,4,{8}3,3,3qq4[8:3],,
{4}7,6,5,
{8}7/2,,3,4,1>4[4:1],,
{4}4V28[8:3],6,5,
{16}6,7,8,1,5,6,7,8,4-8[8:1],5,6,7,
{4}8w4[8:1],Cf,7x/1x,
{8}6<8[8:1],,1/6,2>5[8:1],,2/5,
{8}7-1[8:1],,4/7,5-1[8:1],,8/5,
{16}8,7,6,5,1h[384:1],8h[384:1],7h[384:1],6h[384:1],5h[384:1]/8,4h[384:1]/7,3h[384:1]/6,2h[384:1]/5,
{16}1h[384:1]/4,3,2,1,8-4[8:1]/4h[384:1],7/3h[384:1],6/2h[384:1],5/1h[384:1],8bh[384:1],,,,
{8}3>1[8:1],,8/3,7<4[8:1],,7/4,
{8}2-8[8:1],,5/2,4-8[8:1],,1/4,
{16}1h[384:1],2h[384:1],3h[384:1],4h[384:1],8,1,2,3,4/1h[384:1],5/2h[384:1],6/3h[384:1],7/4h[384:1],
{16}8/5h[384:1],6h[384:1],7h[384:1],8h[384:1],1-5[8:1]/5,2h[384:1]/6,3h[384:1]/7,4h[384:1]/8,1b,,,,
{8}6<1[8:1],,2/6,5-1[8:1],,8/5,
{8}6>3[8:1],,2/6,8-4[8:1],,5/8,
{16}5,6,7,8,5h[384:1],6h[384:1],7h[384:1],8h[384:1],1h[384:1]/6,2h[384:1]/7,3h[384:1]/8,4h[384:1]/1,
{16}5h[384:1]/2,3,4,5,2h[384:1]/6-2[8:1],3h[384:1]/7,4h[384:1]/8,5h[384:1]/1,2b,,,,
{8}3>8[8:1],,7/3,4-8[8:1],,1/4,
{8}3<6[8:1],,7/3,1-5[8:1],,4/1,
{16}4h[384:1],3h[384:1],2h[384:1],1h[384:1],4,3,2,1,8/3h[384:1],7/2h[384:1],6/1h[384:1],5/8h[384:1],
{16}4/7h[384:1],6h[384:1],5h[384:1],4h[384:1],7/3-7[8:1],6/2h[384:1],5/1h[384:1],4/8h[384:1],7bh[384:1],,,,
{8}1-3[8:1],8,1,5-7[8:1],4,5,
{8}3-5[8:1],8,3,7-1[8:1],6,7,
{16}5h[384:1],4h[384:1],3h[384:1],2h[384:1],
1h[384:1]/6,2h[384:1]/7,3h[384:1]/8,4h[384:1]/1,
2,3,4,5,
{16}1h[384:1]/6,2h[384:1]/7,3h[384:1]/8,4h[384:1],
5-1[8:1],6h[384:1],7h[384:1],8h[384:1],
1bh[384:1]/5,,,,
{8}8-6[8:1],2,8,4-2[8:1],5,4,
{8}6-4[8:1],1,6,2-8[8:1],3,2,
{16}4,5,6,7,
8/3h[384:1],7/2h[384:1],6/1h[384:1],5/8h[384:1],
7h[384:1],6h[384:1],5h[384:1],4h[384:1],
{16}8/3h[384:1],7/2h[384:1],6/1h[384:1],5,
4-8[8:1],3,2,1,
8b/4h[384:1],,,,
{8}7-5[8:1],1,7,2-8[8:1],4,2,
{8}7<5[8:1],1,7,3>8[8:1],4,3,
{16}5,4,3,2,
1/4h[384:1],8/3h[384:1],7/2h[384:1],6/1h[384:1],
5/8h[384:1],1h[384:1],2h[384:1],3h[384:1],
{16}4h[384:1]/2,3,4,5,6-2[8:1]/2h[384:1],3h[384:1]/7,4h[384:1]/8,5h[384:1]/1,2b,,,,
{8}3-5[8:1],8,3,7-1[8:1],4,7,
{8}2>4[8:1],8,2,6<1[8:1],5,6,
{16}4h[384:1],5h[384:1],6h[384:1],7h[384:1],
8h[384:1]/5,1h[384:1]/6,2h[384:1]/7,3h[384:1]/8,
4h[384:1]/1,8,7,6,
{16}5/7h[384:1],6h[384:1],5h[384:1],4h[384:1],3-7[8:1]/7,6/2h[384:1],5/1h[384:1],4/8h[384:1],7bh[384:1],,,,
{16}1,2,3,4,
58,7,61,8,
7,6,58,7,
{16}68,1,2,3,
47,6,51,8,
7,6,85,7,
{16}61,2,3,4,
58,7,61,8,
7,6,58,7,
{16}16,2,3,4,
25,3,4,5,
36,4,5,6,
{4}7b-3[4:9],,,
,,,
,,,
,,,
{4}2-6[4:9],,,
,,,
,,,
,,,
{4}6h[4:3],,,
{4}5h[4:3],,,
{4}4h[4:3],,,
{4}3h[4:3],,,
{4}7h[4:12],,,
