&title=藍二乗
&artist=n-buba
&first=0.752
&des=HarKIn
&clock_count=4
&des_5=HarKIn
&lv_5=13+
&inote_5=(210)
{1},,
{4}5h[1:1],,,,
{1},
{4}4h[1:1],,,,
{1},
{4}6h[1:1],,,,
{1},
{4}4h[1:1],,,,
{16}E6,,,E7,,,E8,,E1,,,,3^6[4:1],,,,
{4}7x,7,7,7,
{4}4,4,4,4^1[4:1],
{4}5x,5,5,5,
{4}2,2,2,2^7[4:1],
{4}6x,6,5,5,
{4}1,1,2,2^5[4:1],
{4}5x,6,7/4,8/3,
{4}7/2,6/1,5,C,
{8}6b/3b,5,4,5,6,5,6,4,
{8}5,4,5,4,6,5,4,3,
{8}6,5,6,5,6,4,5,4,
{8}5,3,4,3,5,3,6x,4,
{8}7x/5x,6,4,6,3,4,3,5,
{8}3,4,5,6,4,5,3,5,
{8}4h[2:1],,5,6,7,8,1,2,
{8}5x/3x,6,7x/4x,3,6hx[4:1]/2x,,{16}1x,8x,7x,6x,
{8}5x-1[8:1]*-3[12:1],,5bx,,8x,{16}8x,7,6,,4,,
{16}3,,2,,2x,3,4,,6,,6,,5,,5,,
{16}4h[4:1],,,,8,7,6,,2,3,4,,6,,5,,
{16}4/3h[4:1],,,,5,,6,,7,,8,,1^4[8:1],,,,
{8}5x/1x,6,7^4[8:1],8,1x,2,3^8[8:1],4,
{8}5x,6,7qq3[2:1],8,1,2,3x,,
{8}1x,1x,,7x/8x,7x/8x,,5x/3x,5x/3x,
{8},7x/4x,7x-3[8:1]/4x,,7bx/1bx-5[8:1],,1bx,,
{8}Cf/B1/B5,,3hx[8:1],,3h[8:1],,3h[8:1],,
{8}3h[8:1],,3h[8:1],,3h[8:1],,3h[8:1],,
{8}6h[4:1]/4,,4h[8:1],,4h[8:1],,4h[8:1],,
{8}4h[8:1],,4h[8:1],,4h[8:1],,4h[8:1],5x,
{8}6hx[4:1]/3x,,3h[8:1],,3h[8:1],,3h[8:1],,
{8}7h[4:1]/4,,4h[8:1],,4h[8:1],,4h[8:1],,
{8}8h[4:1]/3,,3h[8:1],,3h[8:1],,3h[8:1],,
{8}7x/B4/E4,,1x/E7/B6,,8x/B1/B2,,3x^6[8:1]/E8/B8,,
{8},,7,8,7,8,7^4[8:1],8,
{8}7x,,2,1,2,1,2^5[8:1],1,
{8}2x,,7,1,7,1,7v4[8:1],1,
{8}7x,,2,8,2,8,2-5[8:1],8,
{8}2x,,7-3[8:1],,1,,2pp6[2:1],2,
{8},,,8,,8,7,6,
{8}5/4,,5/3,,4/6,,5/2,,
{8}7/4,,5/1,,8/4pp7[2:1],,8hx[4:1]/4x,,
{8},,2,2x,,5,5x/3x-8[8:1],,
{8}7-4[8:1],,2-5[8:1],,6pp1[2:1],,6x/3hx[4:1],,
{8},,5,4x,,8,8x/2x-4[8:1],,
{8}8-6[8:1],,5-1[8:1],,8qq4[2:1],,8/3hx[4:1],,
{8},,1,1x,,6,6x/4xh[8:4],,
{8},,8<4[4:1],,4>8[4:1],,8-6-4-2-8<8b[1:1],,
{4}4h[2:3],,,,
{8},,,,,,,4,
{8}5x/3x,,1,8bx^5[8:1]/2bx^5[8:1],,8bx-4[8:1]/2bx-6[8:1],,8bx/2bx,
{8},,,,5h[4:1]/1h[4:1],,,,
{8}7b/3b-6[8:1],,7-3[8:1],,4-8[8:1],,5-1[8:1],,
{8}2-7[8:1],,6-3[8:1],,1-5[8:1],,7-3[8:1],,
{8}7x/8x-4[8:1],,8x/1x-5[8:1],,1x/2x-6[8:1],,8xqq4[8:3]/2x,,
{8}8x,,3^8[8:1],,3x,,7>5[4:1],,7/1,,1x>6[4:1],,1/7,,7x-3[8:1],,
{8}2-6[8:1],,5-8[8:1],,4-1[8:1],,6pp2[8:3],,
{8}6x,,,,,,5b/1b,5b>6b[8:3]/1b,,,,,2^5[8:1],,,,
{8}7-3[8:1],,4-1[8:1],,5-8[8:1],,2-6[8:1],,7-1[8:1],,
{8}3-5[8:1],,6-2[8:1],,3-1[8:1],,
{8}4x-8[8:1]/3x,,5x-1[8:1]/4x,,6x-8[8:1]/5x,,6/4qq8b[8:3],,
{8}4x,,,,7^5[8:1],,1^3[8:1],,
{8}8x-4[8:1],,2x-6[8:1],,7x-3[8:1],,1xw5[8:1],,
{8}1x,,,,6x<2[4:1],,2v4[4:1],,
{8}4bx,,2x,,1,8,7,6,5^2[4:1],,2^7[4:1],,7^4[4:1],,4x,,
{8}3,,5,5/3,,4,4/6,,1x-6[8:1]*-4[8:1],,,,5x-8[8:1]*-2[8:1],,,,
{8}7bx/1bx,8,1,2,8,2,8,2,
{8}7,1,7,1,7,8,1,2,
{8}7,8,7,8,7,1,8,1,
{8}8,2,8,2,1,2,8x,2,
{8}7x/1x,8,1,8,2,1,2,8,
{8}1,8,1,7,2,8,1,7,
{8}2h[2:1],,1,8,7,6,5,4,
{8}3x/5x,6,7x/4x,3,2x^5[8:1]/6x,,{16}6x/2x,7x,8x,1x,
{8}2x-6[8:1]*-4[12:1],,2bx,,{16}7x,,7,6,5,,3,,
{16}2,,1,,1x,2,3,,5,,5,,4,,4,,
{16}6h[4:1],,,,1,2,3,,7,6,5,,2,,1,,
{8}7h[4:1]/8,,5,4,3,2,1^4[8:1],,
{8}8x/1x,7,6^1[8:1],5,4x,3,2^5[8:1],1,
{8}8x,7,6^1[8:1],5,4x,3,2-5[8:1],,
{8}2x,8-4[8:1],,8x,1-5[8:1],,1b,7-4[8:1],
{8},7b,2-6[8:1],,2b^7[8:1]*^5[8:1],,2bx,,
{8}6x,6x,,4/3,4/3,,7/1,7/1,
{16},,,,A2,E2,B1,B8,E8,A7,4x-1[8:27]*^6[8:19],
