&title=楽園PROJECT
&artist=Ray
&first=0
&des=luvlily
&des_5=luvlily
&lv_5=12
&inote_5=(135){1},
{4},,
{16}1-5[8:1]/8,,,,,,,,
{16}7h[16:3],,,6h[16:3],,,5,,2h[16:3],,,3h[16:3],,,4,,
{16}8h[16:3],,,7h[16:3],,,6,,1-5[8:1],,5,,1,,,,
{16}6h[16:3],,,7h[16:3],,,8,,3h[16:3],,,2h[16:3],,,1,,
{16}5h[16:3],,,6h[16:3],,,7,,4-1[8:1]/8-5[8:1],,,,48,,,,
{16}15,,,,2-7[4:1],,,,7-4[4:1],,,,4-1[4:1],,,,
{16}1-6[4:1],,,,6-3[4:1],,,,3,,,,8,,,,
{16}1^3[8:1]/7^5[8:1],,,,,,,,8^6[8:1]/2^4[8:1],,,,,,,,
{16}5,,5^2[8:1]*^8[8:1],,,,5,,,,28,,,,1,8,
{16}2>8[16:7],,,,,,,,,,,,,,1,,
{16}24,,,35,,,8,,75,,,64,,,1,,
{16}3b/7b,,,,48,,2b/6b,,,,15,,26,,4bqq3[8:5]/8bqq7[8:5],,
{16},,,,,,,,,,,,,,,,
{16}1h[8:3],,3,,4,,5^2[16:3],,,,8,,7,,6h[4:1],,
{16},,8,,7,,1,,6,,5,,4,,3,,
{16}8h[8:3],,6,,5,,4^7[16:3],,,,1,,2,,3,,
{16}8,1,8,,27,,4,5,4,5,3,4,3,,2,,
{16}1v3[4:1]/8V64[4:1],,,,,,,,,,,,7qq6[4:1]/2pp3[4:1],,,,
{16},,,,,,,,45,,,,27,,,,
{16}1s5[4:1]/8z4[4:1],,,,,,,,,,,,5/4qq3[4:1],,,,
{16},,,,,,,,2^5[8:1]/8^5[8:1],,,,8b/2b,,,,
{16}3h[8:1],,4,3h[8:1],,,25,,,,6,,6h[8:1],,5,6h[8:1],
{16},,47,,,,2,,2^5[8:1]/4,,,,1,,,,
{16}7h[8:1],,8,6h[8:1],,,5h[8:1]/1,,,,2,,2h[8:1],,1,3h[8:1],
{16},,4-1[8:1]/8-5[8:1],,,,48,,,,1,,6,5,6,5,
{16}8^3[8:1],,7,,6h[8:1],,,,4^1[8:1],,5,,6h[8:1],,,,
{16}8^5[8:1],,1,,2h[8:1],,,,4^7[8:1],,3,,2h[8:1],,,,
{16}2-7[8:1],,3,,4h[8:1],,,,6-3[8:1],,7,,8h[8:1],,,,
{16}1-4[8:1]/8-5[8:1],,18,,,,,,3,,3,,6,5,6,,
{16}7-5[8:1]*-3[8:1]/4,,,,7,,,,2-4[8:1]*-6[8:1]/5,,,,2,,,,
{16}4-1[8:1]*-7[8:1]/8,,,,4,,,,5-8[8:1]*-2[8:1]/1,,,,5,,,,
{16}1-5[8:1]/7-3[8:1],,,,17,,,,4>8[8:1]/7^4[8:1],,,,47,,,,
{16}1b/5,,3,4,,6,5,,25,,1,5,8,5,1,6,
{16},37,,,1z5[16:3]/7s3[16:3],,,3z7[16:3]/5s1[16:3],{16},,,,,,,,
{16}6b^1[8:1]/3b,,2^5[8:1],6,,,2,,1^6[8:1],,5^2[8:1],1,,,5,,
{16}7,,1-5[8:1],4,,4,1b,,6,,3,8,2,,17,,
{16}6^1[8:1]/4,,2-6[8:1],6,,,2,,1-5[8:1],,4^1[8:1],1,,,4,,
{16}5,,1,8,,4V27[16:4]*V61[16:4]/6,4/6,,,,,,,,,,
{16}1b/8b-3[4:1],,,,3-6[4:1],,,,6-1[4:1],,,,1V35[4:1],,,,
{16}5V71[4:1],,,,1V37[4:1],,,,5,,,,1,,,,
{16}1^4[8:1]/8q5[8:1],,,,1b/8b,,,,1p4[8:1]/8^5[8:1],,,,1b/8b,,,,
{16}4-2[8:1],,4-6[8:1],,4-8[8:1],,,,,,7pp8[16:3],,,8<8[16:11]*-5[16:3],,,
{16},,,,,,,,,,,,,,,,
{16}2h[16:4]/1p3[8:1],,,,,,,,7h[16:4]/8q6[8:1],,,,,,,,
{16}2b^7[8:1],,,,2,,3b>6[8:2],,,,3,,4,,5bqq2[8:5]*pp8[8:5],,
{16},,,,,,,,,,,,,,,,
{16}6-8[8:1],,3-1[8:1],,6,,3,,,,2pp4[8:1]/7qq5[8:1],,18,,2b/7b,,
{16},,3,,2,,18,,7,,6,,3v8[8:1]/5v8[8:1],,,,
{16}3bqq3[8:3]/5bpp5[8:3],,,,,,,,,,,,,,1h[2:1]/5,,
{16},,,,,,6b,,7b,,8b/1b,,2b,,3b,,
{16}1-4[16:1],,,1s5[16:3],,,1,,,,,,,,,,
{16},,,,,,,,,,,,,,,,
