&title=霞む夏の灯
&artist=*Luna feat.猫村いろは
&first=0.21
&des=XXD
&lv_5=13.9
&des_5=XXD
&inote_5=
(165){4},,{2}
||这是一个标记~
,
{8},,,,,,,,6-8[0.7273##0.1818],
5,4,5,{4}6b,{8}1-5[0.9091##0.1818],2,
3,{16}4,3,{8}2,1,,5,6,7,
6-8[0.7273##0.1818],5,4,5,6b,{16}1,2,{8}3-1[0.7273##0.1818],4x/5x,
5,4,3,{16}8,7,{8}6,4/5h[8:1],7,5/4h[8:1],
2-4[0.7273##0.1818],1,8,1,{4}2b,{8}5-1[0.9091##0.1818],4,
3,{16}2,3,{8}4,5,,1,8,7,
8-6[0.7273##0.1818],1,2,1,8b,{16}5,4,{4}3-6[8:1]*-5[8:1],
{8}3h[8:3],{16},,,,2,1,{4}8,{8}Cfh[4:33],E8,
E7,,,E6,E7,E8,8,7,
6,5,{4}E5fh[4:27],,4>1[8:1],
{8}4,,,4,3,2,1,2h[4:1],
,,{4}E3fh[4:19],{8},,E6,B7,
E1,,,1,6,8,5,7,
7h[4:1],,,E7fh[8:21],,,,E8,
B8,B1,E2,E1,{2}E1fh[2:3],
,,,,{1}8b>3[1.4545##1.4545],
3<6[1.4545##1.4545],
6b<1[1.4545##1.4545],
1-3-5[1.4545##1.4545],
5b-7-1[1.4545##1.4545],
1,
{8}4b,,,4,4/5-1[8:1],6,5/4-8[8:1],3,
{4}7,7/8-4[8:1],8/7-3-1[4:1],7,
8b,{8}1/8-4[8:1],1,{4}8-6[8:1]/1-5[8:1],8/1-3[4:1],
3-8[4:1],8-4[4:1],4-7[4:1],{8}7-4[8:1]*-4[8:1],5-8[0.1818##0.1818]*-8[0.1818##0.1818],
{4}5b,{8}1/2-6[8:1],8,2/1-5[8:1],3,{4}1/5<1[4:1],
1>5[4:1],5<1[4:1],2,{8}3,1h[4:1]/4h[4:1],
,,1/4,8/3,7/2,6/1,{4}8h[8:1]/5h[8:1],
{12}7/5,6,5,6/4,5,4,5/3,4,3,4/2,3,2,
{16}8b/1b,,,6b/7b,,,{8}4b/5b,{16},2b/3b,,,{4}7b/2b,
{16}7>2[0.4545##0.2727],,,6,5,7,,,3<6[0.4545##0.2727],,,2,1,3,{48},,,,,,{24}7,
8,1,2,,,{8}2/3h[8:1],4,3/4h[8:1],5,4/5h[8:1],6,
{16}6/1-5[8:1],,,2,{8}1,4,{16}3/8-4[8:1],,,7,{8}8,5-1[8:1],
,5,5h[4:3],8,2,7,3,6,
4>1[2:1],,,1,1<6[2:1],,,6,
{4}6>2[4:1],2<6[4:1],6>2[4:1],2-8-3-7-4-6-2b[0.5455##1.0909],
{8}1x-3[8:1],1x-7[8:1],1x-4[8:1],1x-6[8:1],,,,,,,,3,
2,1,8,7,
{16}6>3[0.4545##0.2727],,,7,8,6,,,2<7[0.4545##0.2727],,,3,4,2,{48},,,,,,{24}6,
5,4,3,,,{8}3/2h[8:1],1,2/1h[8:1],8,1/8h[8:1],7,
{16}7/4-8[8:1],,,3,{8}4,1,{16}2/5-1[8:1],,,6,{8}5,8-4[8:1],
,8,8h[4:3],5,3,6,2,7,
1h[1:1],,,2,3,4,5,6,
{4}7p3[0.7273##0.3636],3p7[0.7273##0.3636],{2}7,
{8}8bv5b[2:1],,,5,5bv2b[2:1],,,2,
{2}2,{16}1b,,,2b,,,{8}3b,
4h[4:1],5,5,4h[4:1],5,5,5h[4:1],4,
B4,5h[4:1],4,B4,{16}5h[8:1],4,,,5h[8:1],4,,,{8}4h[4:1],
5,6,4h[4:1],5,6,4h[4:1],5,
7,4h[4:1],6,7,{12}4,6,3,5,{24},,,,{8}5h[4:1],
4,4,5h[4:1],4,4,4h[4:1],5,
B5,4h[4:1],5,B5,{16}4h[8:1],5,,,4h[8:1],5,,,{8}5h[4:1],
4,3,5h[4:1],4,3,5h[4:1],4,
2,5h[4:1],3,2,{4}1b/5bh,{8}Ch[4:31],E2,
E3,,,E4,E3,E2,1,2,
3,4,{4}E5h[4:25],,5<8[8:1],
{8}5,,,5,6,7,8,7h[4:1],
,,{4}E7h[4:17],{8},,E4,B2,
E1,,,8,3,1,4,2,
2h[4:1],,,E3h[8:17],,,E2,B1,
E1,B8,{4}E8,{2}E1h[1:1],
,
||这是一个标记~
,
E7/B7,E1/B1,
E3/B3,B8/B7,
{1}E5/B5/B4,
{4}C,{8}E7,E3,{16}B6/B3,B5/B4,{8}E5,,,{2}E3/B2,
E1/B8,
E7/B6,B4/E5,
{8}B2/E3,B1,B8,B7,,,E6,E5,
{1}E4,
{2}1-5-1b[0.7273##10.9091]`7>8-4>3-7<6-2>3-7[0.7273##10.9091],A1/A7,
A8/B1,C/B8,
C/B4,A4/B5,
A3/A5,C/A5,
B7/A5,A6/A5,
B6/B5,C,
B2/C,A3/B1,
B1/B3,A1/C,
{1}A1/A7,
8b>3[1.4545##1.4545],
3<6[1.4545##1.4546],
6b<1[1.4546##1.4545],
1-3-5[1.4545##1.4545],
5b-7-1[1.4545##1.4545],
1,
{8}4b,,,4,4/5-1[8:1],6,5/4-8[8:1],3,
{4}7,7/8-4[8:1],8/7-3-1[4:1],7,
8b,{8}1/8-4[8:1],1,{4}8-6[8:1]/1-5[8:1],8/1-3[4:1],
3-8[4:1],8-4[4:1],{2}4-8[8:1],
{8}8b,{32},,,,,,,,A8,A1,E8,E2,B7,B2,B6`B3,E6`E4,{8}A5`A4,{32},,,,,,,,,,,,,,,,A8`D8,
A1`D2,E8`A7,E2`A2,B7`D7,B2`D3,B6`B3`A6,E6`E4`A3,{2}A5`A4`D6`D4,
{4},,,{16},,{48}D1`A8`A1,D8`E8`B8`E1`B1`E2`D2,A7`B7`C`B2`A2`D7`E7`E3`D3,A6`B6`B3`A3,E6`D6`B5`B4`E4`D4,A5`E5`A4`D5,
{1}5xh[8:7]/4xh[8:7],
{16}5b/4b,,,3b/2b,,,{8}8b/1b,{16},7b/6b,,,{4}6b/3b,
{16}6>3[0.4545##0.2727],,,7,8,6,,,2<7[0.4546##0.2727],,,3,4,2,{48},,,,,,{24}6,
5,4,3,,,{8}3/2h[8:1],1,2/1h[8:1],8,1/8h[8:1],7,
{16}7/4-8[8:1],,,3,{8}4,1,{16}2/5-1[8:1],,,6,{8}5,8-4[8:1],
,8,8h[4:3],5,3,6,2,7,
1>4[2:1],,,4,4<7[2:1],,,7,
{4}7>3[4:1],3<7[4:1],7>3[4:1],3-5-2-6-1-7-3b[0.5455##1.0909],
{8}4x-2[8:1],4x-6[8:1],4x-1[8:1],4x-7[8:1],,,,,,,7h[8:5],
2,3,4,5,6,
{16}7>2[0.4545##0.2727],,,6,5,7,,,3<6[0.4545##0.2727],,,2,1,3,{48},,,,,,{24}7,
8,1,2,,,{8}2/3h[8:1],4,3/4h[8:1],5,4/5h[8:1],6,
{16}6/1-5[8:1],,,2,{8}1,4,{16}3/8-4[8:1],,,7,{8}8,5-1[8:1],
,5,5h[4:3],8,2,7,3,6,
4h[1:1],,,3,2,1,8,7,
{4}6q2[0.7273##0.3636],2q6[0.7273##0.3636],{2}6,
{8}8bv5b[2:1],,,5,5bv2b[2:1],,,2,
{2}2,{16}4b,,,3b,,,{8}2b,
{16}1-5[8:1],,,8,{8}1,8,{16}8-4[8:1],,,A7h[16:9]/E7h[16:9]/B7h[16:9],{4}8,
{8},E1/B8,{4}E6/B5,{16}8b,,,7b,,,{8}6b,
{16}5-1[8:1],,,4,{8}5,4,{16}4-8[8:1],,,A3h[16:9]/E3h[16:9]/B3h[16:9],{4}4,
{8},E5/B4,{4}E2/B1,{16}8b,,,1b,,,{8}2b,
{16}3-7[8:1],,,2,{8}3,2,{16}2-6[8:1],,,A1h[16:9]/E1h[16:9]/B1h[16:9],{4}2,
{8},E3/B2,{4}E8/B7,{16}2b,,,1b,,,{8}8b,
{16}7-3[8:1],,,6,{8}7,6,{16}6-2[8:1],,,A5h[16:9]/E5h[16:9]/B5h[16:9],{4}6,
{8},E7/B6,{4}E4/B3,{16}4b,,,5b,,,{8}6b,
{16}7-3[8:1],,,6,{8}7,6,{16}6-2[8:1],,,A5h[16:9]/E5h[16:9]/B5h[16:9],{4}6,
{8},E7/B6,{4}E4/B3,{16}6b,,,5b,,,{8}4b,
{16}3-7[8:1],,,2,{8}3,2,{16}2-6[8:1],,,A1h[16:9]/E1h[16:9]/B1h[16:9],{4}2,
{8},E3/B2,{4}E8/B7,{16}6b,,,7b,,,{8}8b,
{16}1-5[8:1],,,8,{8}1,8,{16}8-4[8:1],,,A7h[16:9]/E7h[16:9]/B7h[16:9],{4}8,
{8},E1/B8,{4}E6/B5,{16}5b,,,4b,,,{8}3b,
{16}2bx/8bx,,,1bx/7bx,,,{8}8bx/6bx,{16}7bx,6x,5x,1bx,8x,7x,3bx,2x,
1x,5bx,4x,3x,2x,1x,8x,7x,{2}2xh[4:1]/6xh[8:3],
{8}6-8[0.7273##0.1818],5,4,5,{4}6b,{8}1-5[0.9091##0.1818],2,
3,{16}4,3,{8}2,1,,5,6,7,
6-8[0.7273##0.1818],5,4,5,6b,{16}1,2,{8}3-1[0.7273##0.1818],4x/5x,
5,4,3,{16}8,7,{8}6,4/5h[8:1],7,5/4h[8:1],
2-4[0.7273##0.1818],1,8,1,{4}2b,{8}5-1[0.9091##0.1818],4,
3,{16}2,3,{8}4,5,,1,8,7,
8-6[0.7273##0.1818],1,2,1,8b,{16}5,4,{4}3-6[8:1]*-5[8:1],
{8}3h[8:3],{16},,,,2,1,{2}8h[4:1],
E
