&title=Climax
&artist=USAO
&first=-0
&des=谱面-200号
&lv_5=13
&inote_5=(190){1},
{8},,
7>4[2:1]/2h[4:7],,,,,,,,5,,6,,7,,8,,1>5[2:1]/3h[4:7],,,,,,,,6,,7,,8,,1,,
3/2,,6h[4:1]/1,,5,6,7/4,,6/7,,8/3h[4:1],,4,3,5/2,,7h[4:1]/8,,{16}5,6,4,5,3h[4:1],,,,
5,4,6,5,
{8}7s3[8:3],,,,1-5[8:1],,1,,
7<3[8:5]/4,,,2,,2,,1,
8pp4[8:5],,,6,,6,,7,
8<4[8:5],,,3,,3,,2,
{8}1h[8:3],5,6,7,
{24}8/3,,,1,8,7,6h[8:1],,,8,1,2,
{8}3/7,7,7,7,3/6,6,6,6,5/2,2,2,2,2/6,2,2,2,
{16}1,4,1,5,1,6,1,7,2,5,2,6,2,7,2,8,
{4}3V15[8:3],,7-3[8:1],7,
{8}2-5[8:1]/5,,2,6,7h[8:3],4,3,2,1-3[8:1]/6,,1/7h[4:1],,4-8[8:1],,4/6h[4:1],,
7-4[8:1],,7/8,1,2h[8:3],5,6,7,8-6[8:1]/3,,8/2h[4:1],,5-1[8:1],,5/3h[4:1],,
8,7,1/6pp4[8:3],2,3,,2,2,1-4[8:1]/5,,1/6h[4:1],,3-7[8:1],,3/5h[4:1],,
8>4[8:1],,8/5,6,7-3[8:1],8,1-5[8:1],,1b,,
{16}8,4,7,3,{24}6h[4:1],,,8,1,2,3h[4:1],,,1,8,7,
{8}6V84[8:2],,3,2,1,1>4[4:1],,4<7[4:1],,7q1[8:3],,8,,6,6,5,
4h[4:1],,{16}1,5,2,5,3h[4:1],,,,6,4,6,5,7,,{8}8>3[8:1]/6>3[8:1],,8/6,,1/2,8/7,6/5,
4/3qq5[8:3],5,6,7,8-4[8:1],8,3,2,{16}5,1,6,2,7-3[8:1],,3-7[8:1],,2h[2:1],,,,,,,,
6,2,5,2,4,2,3,2,8,7,6,5,4,3,2,1,
{8}8w4[8:1],,8,,2v4[8:1]/6v8[8:1],,2b/6b,,
5/7,8,1h[8:1]/3h[8:1],,1h[8:1]/3h[8:1],,1h[8:1]/3h[8:1],,1-5[8:1]/3h[8:1],,1/8,,7<4[8:1],2,7/8,,3,2,
1h[8:1]/5h[8:1],,1h[8:1]/5h[8:1],,1h[8:1]/5h[8:1],,5h[8:1]/1-5[8:1],,7/1,,
3bV15[4:1]/7b,,6,6,7,8,
1h[8:1]/3h[8:1],,1h[8:1]/3h[8:1],,1h[8:1]/3h[8:1],,3-7[8:1]/1h[8:1],,3/4,,6<1[8:1],3,6/5,,3h[8:1],
{16}8,5,6h[8:1],,3,4,1h[8:1],,6,8,5,2,4,1,
5h[8:3],,8,,8,,8,,6/1,,7/2,,8-4[8:1],1,2,3,4b,,,,
{8}3/5,2,4/6,3,5/7,4,3/2,1,8/7,6,5-1[8:1],4,3h[4:1],,
{16}2,3,2,3,2-6[8:1],,,3,,,4,,4-8[8:1],,5,,6-2[8:1],,,7,,,8,,,1,5,2,5,3,5,4,
{8}6pp1[4:3],,2,,3,,4,,5>1[2:1],,8,,7,,6h[4:1],,
{16}2,5,1,7,4,6,3,8,{32}2,3,4,5,6,7,8,1,2,3,4,5,6,7,8,1,
{4}2-5[8:1],2/7-2[8:1]*-4[8:1],7b,1b/5b,
{8}8b-5[8:1]/3h[2:1],,,,6h[128:1],6h[128:1]/3h[128:1],6h[128:1]/4-1[8:1],6h[128:1]/5h[128:1],7h[4:1],,2h[4:1],,8-3[8:1],,7h[4:1],,
{16}4b>1[8:1],,,,8,7,6,5,4<7[8:1],,,,8,1,2,3,
{8}4h[128:1]/8h[128:1],8h[128:1],8h[128:1]/3h[128:1],8h[128:1],8z4[8:1]/2h[128:1],1h[128:1],8b/1b,,
3-8[8:1]/5h[2:1],,,,1h[128:1],1h[128:1]/6h[128:1],1h[128:1]/7-4[8:1],1h[128:1]/8h[128:1],
2>5[8:1],,{16}6,7,8,1,2<7[8:1],,,,5,4,3,2,
{4}1-5[8:1],2-6[8:1],3-7[8:1],4-8[8:1],5<4[8:3]*>6[8:3],,,5b,
3qq5[1:1]/7h[8:14],,,,,,,4,2h[8:14]/5>7[8:4],,,,6,5,4,3,
{8}8/7h[4:1],,5,6h[4:1],,4h[4:1],,1<5[8:3],,5,4,3,2h[8:4],,4,,
5h[8:3],,6,6h[4:1],,7h[4:1],,8,
1h[4:1],4,6h[4:1],3,5>1[4:1],8,7,6,
5pp1[8:3],,,1<2[8:5],,4,,3h[8:5],,,,,1-6[8:1],,,,
2<4[8:4],,,6,,7,,8h[4:1],{16}3,4,5,6,7,8,1,2,7,6,5,4,3,2,1,8,
{8}7qq4[8:3],,7,4<3[8:5],,3,,2h[8:5],,,,,4-8[8:1],,,,
1/7,,6,5h[4:1]/6,,3h[4:1],,1,
{16}2,1,3,8,4,7,5,6,4,,2b/1b,,8b/7b,,,,
{8}5/6-1[8:1],,6/3h[4:1],,8-5[8:1],,8/2h[4:1],,
4-7[8:1],,4/1h[4:1],,8-4[8:1],7,8b/6b,,
5/3-8[8:1],,3/6h[4:1],,{16}7,6,7,6,7,6,7,,
1-5[8:1]/6-8[8:1],,,,1/6,,,,{24}4h[4:1]/7,,,1,8,7,6h[4:1],,,8,1,2,
{8}3-8[8:1],7,6,5,1-5[8:1],6,7,8,4-1[8:1],7,6,5,8-3[8:1],4,5,6,
{16}7,2,6,2,5,2,4,2,{32}3,4,5,6,7,8,1,2,3,4,5,6,7,8,1,2,
{4}3b-7[8:3],,,{16}8,1,8,,
{16}2/1,,8,5,6,,4/7-4[8:1],,,,7/3h[4:1],,,,5<2[8:2],,,,2,,3,,4z8[16:5],,5,,,,,,
,,7-4[8:1],,1,1,7,,2-6[8:1],,,,2/8,,,,1h[8:1],,4,8,3,8,2,8,1,8,{16}2,3,4,5,6,7,8,1,
2>5[8:1],,6,6,2,,7v4[8:1],,,,7/8,,,,1>6[16:4]/5,,,,6,,7,,8z4[16:5],,1,,,,,,,,
{8}3-6[8:1],2,1,8,3v6[8:1],2,1,8,3-6[8:1],2,1,8,3bv6[8:1]/7b>2[8:1],,,,
{16}7/8,,1,4,3,,5/2-5[8:1],,,,2/6h[4:1],,,,4>7[8:2],,,,7,,6,,5s1[16:5],,4,,,,,,
,,2-5[8:1],,8,8,2,,7-3[8:1],,,,7/1,,,,8h[8:1],,5,1,6,1,7,1,8,1,{16}7,6,5,4,3,2,1,8,
2-5[8:1]/7,,3,,2/1,,8,,7h[8:1],,5,8,6,,5/7,,2,1,2,1,2,,8-4[8:1],7,,7,8,,6,,5h[8:1],,
{24}2,3,4,7,6,5,1,2,3,8,7,6,2,3,4,7,6,5,1s5[8:3],2,3,8,7,6,1b,,,,,,
{8},,6-2[8:1],,6,,3-8[8:1],4,5,6h[4:1],,7>4[4:1],5,6,7,8-4[8:1],1,2h[4:1],,3<8[4:1],1,2,3,4-8[8:1],5,6h[4:1],,7-5[8:1],8,1/7,
{24}2,3,4,5,6,7,8,1,2,3,4,5,6w2[8:1],,,,,,6b,,,,,,
{8}7-4[8:1],8,1,2h[4:1],,3<8[4:1],1,2,3,4-8[8:1],5,6h[4:1],,1,2,3,4/5,6,8/7-3[8:1],,1-5[8:1],,2,,
{16}4-8[8:1],,,6>1[16:5],,,6,,2b,,,,,,,,
{8}5/7,6,2-4[8:1]/4,,1-5[8:1]/2,,1/8-6[8:1],,8/4-7[8:1],,2-6[8:1]/4,,2/8-4[8:1],1,8,,
3/5,4/6,{16}7/5-2[16:1],,,5,,,6,,7/8,,1/6,,
{24}2,3,4,7,6,5,2z6[16:5],3,4,7,6,5,2,,,,,,,,,,,,
{8}7/5,8,
1-5[8:1]/2-4[8:1],,1-7[8:1]/2-6[8:1],,1-5[8:1]/2-4[8:1],,1-7[8:1]/2-6[8:1],,1/2,,
8/5,3,1/4,6,{16}5,7,5,7,4,6,4,6,3,5,3,5,2,4,2,4,1,4,3,6,5,8,3,4,1bs5[8:2],,,,
{8},,7-4[8:1],,7,3,2h[8:3],5,6,7,8-6[8:1]/3,,8/2h[4:1],,5-1[8:1],,5/3h[4:1],,
{16}8h[4:1],,,,4,7,4,6,3h[4:1],,,,1,2,8,2,
{8}7h[4:1],5,3h[4:1],6,8-4[8:1],1,2/8,,3-1[8:1],3,5,6,3-8[8:1],3,6,7h[8:1],{16}6,7,6,7,{16}8h[8:1],,,1h[8:1]/7h[8:1],,,2/6,,2/6,,3,,
{16}5,4,5,3,5,4,5,2,5,4,5,1,6,2,7,3,8h[2:1],,,,3,,4,,5-2[8:1],,,,7>5[4:1]/5,,,,7b/3b
,,,,,,,,E
&inote_7=(180){1},
{8},,,,4,,5$,,,4,5$,,4,,5$,,,4,5$,,4,,5$,,,4,5$,,,,5$,,,4,5$,5$,4,,5$,,,4,5$,,,,5$,,,4,5$,5$,4,,
5$,,5$,,5$,,{24}5$,5$,,,,,5$,5$,,,,,5$,5$,,,,,{16}4b,,,,
4,,4,,5$,,4,4,4,,4,,5$,,4,,4,,4,,5$,,4,4,4,,5$,,4,,5$,,4,,4,,5$,,4,4,4,,4,,5$,,
4,,4,,4,,5$,,4,4,4,,5$,,4,,5$,,4,,4,,5$,,4,4,4,,4,,5$,,4,,4,,4,,5$,,4,4,4,,5$,,
4,,5$,,4,4,4,4,4,4,4,4,4,4,4,4,4,4,4,4,,,,,,,,,,,,,{4}5b$,
{16}4b,,5$,5$,4,,5$,,,,4,,5$,,4,,4,5$,5$,5$,4,,5$,,,,5$,,5$,,5$,,
4,,5$,5$,4,,5$,,,,4,,5$,,4,,4,5$,5$,5$,4,,5$,,,,4,,5$,,5$,,
4,,5$,,,,5$,,4,,5$,,4,,5$,,,,5$,,4,,5$,,4,,5$,,4,,5$,,4,,5$,,4,,5$,,4,,5$,5$,4,4,5$,,
4,,5$,5$,4,4,5$,,4,,4,,5b$,,,,
4b,,5$,5$,4,,5$,,,,4,,5$,,4,,
4,5$,5$,5$,4,,5$,,,,5$,,5$,,5$,,
4,,5$,5$,4,,5$,,,,4,,5$,,4,,
4,5$,5$,5$,4,,5$,,,,4,,5$,,5$,,
4,,5$,,,,5$,,4,,5$,,4,,5$,,,,
5$,,4,,5$,,4,,5$,,4,,5$,,4,,5$,5$,4,,5$,5$,4,,5$,5$,4,,5$,,
5$,5$,5$,5$,{24}4,4,4,4,4,4,
{16}4,,4,,5b$,,,,
4b,,,,5$,,4b,,,,5b$,,,,4b,,4b,,,,5$,,4b,,,,5$,,,,
4b,,4b,,,,5$,,4b,,,,5$,,,,4b,,4b,,,,5$,,4b,,5$,5$,5$,,5$,,5$,,4b,,,,5$,,4b,,,,5$,,,,4b,,4b,,,,5$,,4b,,,,5$,,,,4b,,4,,4,,4,,5$,,4,,5$,,4,,5$,,4,4,,4,4,,4b,,,,4,,,,,,
4,,5$,,4,,5$,,4,,5$,4,4,4,5$,,4,,5$,,4,,5$,,4,,5$,4,,4,5$,,
4,,5$,,4,,5$,,4,,5$,5$,4,5$,5$,,
4,,5$,4,4,4,5$,,4,,5$,5$,4,5$,5$,,
4,,5$,,4,,5$,,4,,5$,5$,4,5$,5$,,
4,,5$,5$,4,5$,5$,,4,,5$,5$,4,5$,5$,5$,
4,5$,5$,5$,5$,5$,5$,5$,4,5$,5$,5$,5$,5$,5$,5$,
4,5$,5$,5$,5$,5$,5$,5$,{24}5$,5$,5$,5$,5$,5$,5$,,,,,,
{1}4,,,
{8},,,,,4,5$,5$,
{1}5$,
{8},,,,,5$,5$,5$,
{1}4,
{8},,,,,4,5$,5$,
{16}4,,5$,,4,4,5$,,4,,5$,,4,4,5$,,
4,,5$,,4,4,5$,,4,,5$,,4,4,5$,,
4,,5$,,4,,,4,4,,5$,,4,,5$,,
4,,,4,4,,5$,,4,4,,5$,4,4,4,4,
4,,5$,,4,,5$,,4,,5$,,4,,5$,,4,,5$,,4,,5$,4,4,,5$,,4,,5$,4,
4,,5$,,4,,5$,5$,4,,5$,,4,,
{24}5$,5$,5$,
4,,,5$,5$,5$,4,,,5$,5$,,
{2}4b,
{16}4b,,5$,5$,4,4,5$,,4,,5$,5$,4,,5$,,,,
{24}5$,5$,5$,{16}4,,5$,,4,,5$,5$,4,,5$,,
4,,5$,5$,4,4,5$,,4,,5$,5$,4,,5$,,
4,,{24}5$,5$,5$,{16}4,,5$,,4,,5$,5$,4,,5$,,
4,,5$,5$,4,4,5$,4,4,,5$,5$,4,,5$,,,,
{24}5$,5$,5$,{16}4,,5$,,4,,5$,5$,4,,5$,,
4,,{24}5$,5$,5$,{16}4,,5$,4,4,,
{24}5$,5$,5$,{16}4,,5$,5$,
4,,5$,4,,,4,,
{24}5$,5$,5$,4,,,5$,5$,5$,4,,,
{16}4b,,5$,5$,4,4,5$,4,4,,5$,5$,4,,5$,,
5$,,{24}5$,5$,5$,{16}4,,5$,,4,,5$,5$,4,,5$,,
{24}4,,,5$,5$,5$,{16}5$,,5$,5$,5$,,
{24}5$,5$,5$,{16}5$,,5$,5$,
4,4,5$,,5$,,4,,4,4,5$,,5b$,,4,,
{16}4,,5$,5$,4,4,5$,4,4,,5$,5$,4,,5$,,
5$,,{24}5$,5$,5$,{16}4,,5$,,4,,
{24}5$,5$,5$,{16}4,,5$,,
4,,{24}5$,5$,5$,{16}4,,5$,4,4,,{24}5$,5$,5$,{16}4,,5$,5$,
4,4,5$,,5$,,4,,{24}5$,5$,5$,{16}4,,4b,,4b,,
{16}4,,5$,,,,5$,5$,4,,5$,,5$,,4,,
,,5$,,,,5$,5$,5$,,5$,,4,,5$,,
4,5$,4,4,5$,,5$,5$,5$,,5$,,4,,5$,,,,5$,,,,5$,5$,5$,,5$,,4,,5$,5$,4,,5$,,4,,5$,5$,5$,,5$,,4,,5$,,
,,5$,,,,5$,5$,5$,,5$,,4,,5$,,
4,5$,4,4,5$,5$,4,5$,4,5$,4,4,5$,5$,4,4,
4,5$,4,4,5$,5$,4,5$,{24}5$,5$,5$,5$,5$,5$,{16}4,4,4,,
4b,E
