&title=チェリーコークにペパーミント
&artist=Ingen
&first=0
&des=ソーダフロート
&lv_5=14
&inote_5=(150)
{1},
{32}4h[8:1],,,,,,,,{24}4,{16}5,,{24},,4h[24:3]/5,,,,,,4,{16}5,,,,4,,
{24}6,5,4,3>6[16:4],,,
{24}3q6[24:8],,,,,,,,,,,,,,,
{8}5,6,4,3,{16}2q7[16:1],,,,{8},5,78,68,78,68,1/7<4[8:1],,
{24}7,,2,1,,1,,,6,,,8,,,2,,,8,,,2,8,,2,7,,6,,,5,3,,3,4,,4,3,,2,,,1,,,1,,,2,,,1,8,,7,
{8}4,3,5,6,{16}7p2[16:1],,,,{8},4,21,31,21,31,8/2>5[8:1],,,,
{8}7h[8:6]/4h[8:6],,,,,,,,
{32}12,,,,,,,,23,,,,,,3/6pp3[16:5],,{24},,,4,,,3,,,2,,,
{24}1h[24:10],,,,,,3-8[16:1],,,,,,,,,2,,,8,,,6,,,
{24}7h[24:10],,,,,,6-3[16:1],,,,,,,,,7,,,5,,,3,,,
{8}5,6,4,3,{24}7-5[16:1],,7,,,7,,,,{8}3,1q5[8:1],7>6[8:3],1,7,,,,,
{24}5h[24:10],,,,,,7-4[16:1],,,,,,,,,5,,,7,,,1,,,
{24}3h[24:10],,,,,,2<7[16:1],,,,,,,,,2,,,4,,,6,,,
{8}7-5[16:1],8,1-3[16:1],8,7z3[8:1],,,,4h[8:4],,,,
{24}7,6,5,2,3,4,1,2,3,8,7,6,
{8}5h[8:1],7,8h[8:1],6,{16}5qq3[16:1],,,57,,,6,,
{24}3,,3,4,,4,5,,5,6,,6,7,,7,6,,6,4,,4,8,,35,,,6,4,,,8,,35,,,6,4,,,2,,37,,,6,4,,5,
{24}3,5,3,6,4,6,3,4,3,6,5,6,2,3,4,5,6,7,8,,2,,,5,
{8}4h[8:1],2,1h[8:1],3,{16}4pp6[16:1],,,42,,,3,,
{8}4h[12:1]/6h[12:1],3h[12:1]/5h[12:1],4h[12:1]/6h[12:1],3h[12:1]/5h[12:1],4/1-5[8:1],,,,
{24}7h[8:8]/1,,8,,,2,1,,8,,,2,1,,8,,,2,1,,8,,,2,1,,8,,,2,1,,8,,,2,1,,7,,,5h[8:1],,,
{24}6,7,8,1,2,,,2,,,2,,3,2,,3,,,3,,,3,2,,2,3,4,5,6,,6,7,,7,6,,6,5,,5,6,,8,5,,24,,,
{24}6,5,,4,,,4,,,3,4,5,6,7,8,1,2-7[8:1]/4,,,7-4[8:1]/8,,,2,,,,,,
{24},,6,3,,8,7,,5,6,,1,3-8[16:1],,8V62[8:1],,,3,,,,,,,
{24}7,,4,1,,5,8,,3,6,,1,5,,3,7,,5,4,,2,,,8,
{24}2,,4,5,,7,8,,6,,,6,8<5[8:1],,,5>8[16:3],,,8,,,,,,
{24},,5,,,2,43,,,54,,,6,7,8,5,6,7,5,,1,,,7,65,,,54,,,43,,,54,,,4,3,2,3,4,5,4,3,2,3,4,5,
{24}7,,,5,,,3,,1,,,8-4[8:1],,,8,1,,2,3,,,3,,,
{24}5h[12:1],,,2h[12:1]/4h[12:1],,,7/8,,7,,,67,,,6,7,,6,5,,5,4,,,
{16}4,25,,8,1/6,,5,72,,27,16,5h[8:1]/8,,8,6,,
{24}47,,,8,,,4/7v6[8:1],,8,,,8,4q1[8:1]/7,,,3,4,,,,5,,,5,
{24}3,,1,,,8,1,,2,1,,7,1,,,,1/3,,,,14,,,14,,,14,,,14,2,3,4,6,7,8,12,,,25,,6-2[16:1]/8,,,72,,,64,
{24},,,3,4,5,8,7,6,5,4,3,7,,1,4,,2,6,,4,7,,1,4,,2,6,,3,
{24}4,,6,7,,1,6,5,4,3,2,1,4,5,6,7,8,1,
{8}2b>8[8:8]*v8[8:8]/4b,,,,,,,,,,,,,,{24},,2v5[24:32],,,,,1-6[8:9],,,,,,,,,,,,,,,,,,,,,,,,,,,,,,,,,,,,,,,,,,,7,,,,,6h[24:41]/5<5[24:29],,,,,,,,,,,,,,,,,,,,,,,,,,,,,,,,,,,,,,,,,,,,,,,
{24}3V14[8:4]/5V74[8:4],,,,,,,,,,,,,,,,,,,,,,,,
{24}5,,,78,,,4,,,12,,,6`4,,,5`3,,,4`2,,,3`1,,,
{24}2pp8[16:4]/7,,,,,,2/4,,,,5,,{16},5,1,6,2,7,3,8,
{24}4/7qq1[8:2],,,,,,7/3,,,,2,,,,,2h[8:1],,,4h[8:1],,,6,,,
{24}5,,6,,,56,,,4,5,,2,4,,,35,,46,,,5,7,,,
{8}8p4[8:1],2<3[8:3],8,2,,,,,
{24}5/3qq5[8:2],,,5,,,3/6,,,,7,,{16},8,,4,7,3,6,2,
{24},,1b/2b,,,,,,1b/6b,,,,,3bV14[8:11]*pp4[8:11]/4b,,,,,,,,,,,,,,,,,,,,,,,,,,,,,,,,,,,,,,,,,,,,,,,
{8},1h[8:1],8h[8:1],7h[8:1],6h[8:1],7h[8:1],{16}6,5,4,,43,,,,2qq7[8:3]/4v5[16:2],,,24,
{24},,,,,,,,,,,,7,6,5,8,7,6,1,8,7,2,1,8,
{8}4,35,5,46,3-6[16:1]/7,{16},37,,,7,,
{8}7h[12:1]/6h[12:1],6h[12:1]/5h[12:1],5h[12:1]/4h[12:1],4h[12:1]/3h[12:1],2/3-6[16:1],{16},37,,,,,
{8}5,74,4,52,6v3[16:1]/1,{16},61,,,2,,
{8}2h[12:1]/3h[12:1],3h[12:1]/4h[12:1],4h[12:1]/5h[12:1],5h[12:1]/6h[12:1],7/6v3[16:1],{16},61,,,,,
{8}34,25,56,47,2q7[16:1]/8,{16},12,,,8,,
{8}8h[12:1]/6h[12:1],7h[12:1]/5h[12:1],6h[12:1]/4h[12:1],5h[12:1]/3h[12:1],1/2q7[16:1],{16},12,,,,,
{16}2,1,2,1,7,8,7,8,,,62,73,84,15,6/2,,
{16},4,3b/5b,,6,5b/7b,,1,2b/8b<1[8:3]*q1[8:3],
E
