&title=不死身ごっこ
&artist=ピノキオピー
&first=-0.17
&lv_5=13
&des_5=吉吉菌
&inote_5=
(147){4},1x/7x,{16}3,4,{8}3,2x/4x,{16}3,4,
{8}3,3x/4x,4/5,{16}6,5,{8}6,5x/6x,5/4,{16}7,1,
{8}7,2/6,{4}5x/3x,{16}7,8,{8}7,1x/6x,{16}7,8,
{8}7,8x/1x,2/1,{16}2,1,{8}2-5[8:1],1/3,{4}8x/2x,
{8}5xv3[8:1]/7xv1[8:1],4/8,{16}7b/5b,Cf,{8},1xh[8:1],{16}2,8,{8}1-6[8:1],8-4[8:1],
1>3[8:1],8<6[8:1],1-6[8:1],8-3[8:1],{4}1pp3[8:1],1b,
{8}3x-7[8:1]/5x-1[8:1],2/6,{4}3b/5b,{8}8xh[8:1],2,{16}1,7,8,6,
{8}1,1,8-3[8:1],1-6[8:1],{4}8pp2[8:1],8b,
{8}2xv8[8:1]/4xv6[8:1],1/5,{4}2b/4b,{8}8xh[8:1],{16}1,7,{8}2h[8:1],{16}6,3,
{8}5h[8:1],4,5-7[8:1],4-8[8:1],5-1[8:1],4-2[8:1],{4}5-1[8:1]*pp7[8:1],
5b,{8}6x/B4,6x,7/B3,7,7/B2,8,
8/B1,{16}8,1,7,2,6,3,5,4,5,B3,{24}B4,B5,B6,B7,B8,B1,
{4}B2/Cfh[8:1],1bx,{16}2,1,{8}2,3x/1x,{16}2,1,
{8}2,2x/1x,1/8,{16}7,8,{8}7,8x/7x,1,{16}6,4,
{8}6,3/7,{4}2x,{16}6,5,{8}6,4x/7x,{16}6,5,
{8}6,5x/4x,3/4,{16}3,4,{8}3,4/2,{4}5h[4:1]/3h[4:1],
,{8}1/2,1,2/1h[4:1],2,2,{16}1,2,
{8}1/3,{24}B1,C,B5,{8}4,6x/4x,6,5/6h[4:1],5,5,
{4}6x/5x,{8}7/4,4,7/4h[4:1],7,{16}7-3[8:1],5,6,5,
{8}7,{4},{8}3/2,2/1,1/2h[4:1],1,1,
2/1,1h[8:1]/2h[8:1],,8,8,1,1,7,
2,8,1,8,{16}B2,8,B1,8,{24}B1,B8,B7,B6,B5,B4,
{4}B3/Cfh[8:1],{8}8x,7,6-2[8:1],{16}6,5,{4}6,
{8}4,3,2/4,3,4/2-6[8:1],{16}2,4,{4}2,
{8}E6,B4,4/5,6/5,7/6,8/7,8/1,2/7,
3/6-2[2:1],4/7,{4}6/A5fh[2:1]/A4fh[2:1],{16},,,,,E6f/E4f,B6f/B3f,B7f/B2f,
{4}E8f/E2f,{8}1,8,7/1-5[8:1],{16}1,7,{4}1,
{8}5x/6x,5,5/7,6,6/4-1[8:1],{16}4,5,{4}4,
{8}1x/8x,2x/7x,{4}3>7[4:1],7<3[4:1],3>7[4:1],
{8}7-3[2:1]*<3[2:1],{4},,,{8}B3,
{4}B6,{8}1/7,6,1/7,6,8/7>2v4[4:1],6,
{4}7/8,{24}A3,B4,B5,A6,{12},{24}A3,B4,B5,A6,{12},{8}4xqq2[8:1]*pp6[8:1],3/5,
{4}4b,{8}7x/2x,5,3x/6x,4,3/5v3>7[4:1],6,
{4}5/4,{24}A6,B5,B4,A3,{12},{24}A6,B5,B4,A3,{12},{8}5xpp7[8:1]*qq3[8:1],6/4,
{4}5b,{8}6x/3x,3,3/6-2[8:1],{16}7,4,{4}6,
{8}2x/3x,1/2,8,1/2,2-5[8:1],{16}2,1,{4}2,
{8}6x<2[4:1],6,{4}2x>6[4:1],6<2[4:1],2>6[4:1],
Cf,3-6[16:1],{8}3/7,7,{4}6/3-6[16:1],
{8}6/3,7,7/3-6[16:1],6,{4}3/6,{8}6x/3x,2/7,
8-5[16:1]/1-4[16:1],2/7,{16}1/8,B5f/B4f/D4f/A4f/A5f/D6f,{8},3x/6x,{16}5,4,5,4,5,4,
{8}5h[8:1],B5,4h[8:1],B4,{16}3-8[8:1],4,3,4,{4}3,
{8}8x/4x,1x/5x,{16}6,2,6,3,{8}6/4,{16}6,5,7,4,8,3,
{4}1x/2x,{16}1,2,8,3,7,4,6,5,{8}6h[8:1],5h[8:1],
{4}7h[8:1],{16}4,7,4,6,4,7,4,8,{8}1x/3-7[8:1],4/2,
{2}3,{8}7/6,5/6,5/4,4/3,
5/4,6h[8:1]/5h[8:1],,{16}6,5,{8}4x/7x,6,5,6,
4,5h[4:1]/3h[4:1],,,,3q4<2[8:3],{4},C,
{8}5,5,{16}6,3x/6x,,2,1x/7x,6,5,3x/4x,
{8},{16}5x,3,5,2x,4,2,5x,3,4,2,3,4,5,7x/6x,
,1,{8}8x/2x,3/7,4/5,{16}5/6,7x,,6/5,4x,3x,2x,6x,
7x,8x,3x,2x,1/8,7x,6x,1x,2x,3x,4,6x,7x,1/8,2x,3x,
5x,4x,5x,4x,{8}5x/3x,5,6/2-5[8:1],{16}2,7,{4}2,
,{8}5x/3x,5,6/2-5[8:1],{16}2,7,{4}2,
,{16}8x/1x-3[8:1],7x,,6x,{8}7x/1x-7[8:1],{16}6x,5x,1x-3[8:1],5x,{8}4-8[8:1],
1<4[8:1],4>1[8:1],{1},{4}1-4[2:1],
{2},{8}8,
8,{4}8-5[4:1],{2},{8}4,
5,{4}5<8[2:1]/4>1[2:1],,,,{16}E7,
B6,{8}B5,{16}E3,B3,{8}B4,{16}E6/E4,B6/B3,B2/B7,E2/E8,
{4},{24}6h[8:1]/B1,B2,B3,B4,B5,B6,B7/6x-1[8:1],B8,B1,B2,B3,B4,{4}6b/B5,
,{24}3h[8:1]/B8,B7,B6,B5,B4,B3,B2/3x-8[8:1],B1,B8,B7,B6,B5,{4}3b/B4,
,6h[4:1]/Cf,,3h[4:1]/Cf,
,{16}6,5,{8}6,{16}3,4,{8}3,{16}6,4,7,3,
E7/E3,B6/B2,B5/B1,E5/E1,{8}8bx/4bx,1,6/8-4[8:1],{16}8,6,{4}8,
{8}5,6,7/4,8,{16}7x/5x-1[8:1],6,,6,{4}5b,
{16}7,1,{8}7,8/7,2/5,1/6,3/4,2/5,3/6,
4/7-3[2:1],8/5,{4}A5h[2:1]/A4h[2:1],{16},,,,,E6f/E4f,B3f/B6f,B2f/B7f,
{4}E2f/E8f,{8}2x/8x,7,6/3-8[8:1],{16}3,5,{4}3,
{8}6,5,4/2,3,2-6[8:1],{16}2,4,{4}2,
{8}4<8[4:1],4,{4}8>4[4:1],4<8[4:1],8>4[4:1],
{8}4<8[2:1]*-8[2:1],{4},,,{8}E6,
{4}E4,{8}3/6,B6,4/5,B3,4/5v3>7[4:1],B6,
{4}4/5,A6f/E6f/E4f/A3f,E6f/B5f/B4f/E4f,{8}4,3/5,
{32}A4,B4,C,B1/B7,{8}A2/A6,2x/7x,B8,2/7,B1,2/7>2v4[4:1],B8,
{4}7/1,B5/B6/A6/B4/B3/A3,C/B6/B5/B3/B4,{8}5,4/6,
{32}A5,B5,C,B8/B2,{8}A7/A3,4x/6x,5,3/6-1[8:1],{16}5,2,{4}6,
{8}1x/2h[4:1],3,3,3,{16}2-6[8:1],4,2,4,{4}2,
{8}5<1[4:1],5,{4}1>5[4:1],5<1[4:1],1>5[4:1],
5<1[4:1],1-5[4:1]*>5[4:1],{8},,,B5,
3,3/5,{16}4/3-1[8:1],{8},{16}4,{4}3/4-6[8:1],4/3-1[8:1],
{1}4pp7[2:1]/3qq8[2:1],
{8}7/8,7/1,{16}7/2,{8},{16}7,{2}3h[8:3]/7h[8:3],
{24}3x-6[8:1]/7x-2[8:1],2x/6x,1x/5x,4x/8x,{12},{4}7bx/3bx,{16}6x,5x,{8}6x,7x/5x,{16}6,5,
{8}6,6x/5x,5/4,{16}3,4,{8}3,4x/3x,4/5,{16}2,8,
{8}2,7/3,{4}4x/6x,{16}2,1,{8}2,8x/3x,{16}2,1,
{8}2,1x/8x,7/8,{16}7,8,{8}7,8/7,1/6,{16}5,2,
{8}5h[8:1],2h[8:1],{4}8bx,{16}2,1,{8}2,3x/1x,{16}2,1,
{8}2,2x/1x,1/8,{16}7,8,{8}7,8x/7x,8/1,{16}6,4,
{8}6,3/7,{4}8x/2x,{16}6,5,{8}6,4x/7x,{16}6,5,
{8}6,5x/4x,{4}5-7[8:1],5/3-1[8:1],3/5-8[8:1],
5/3>4[8:3],3/5,
E
