&title=再生
&artist=25時、ナイトコードで
&first=0
&des=luvlily
&lv_4=8+
&lv_7=1
&inote_1=(76){2},{2}1w5[0.95#640:1],1-5[0.97435897#624:1],1-4[1#608:1],1-6[1.027027027027027#592:1],
1w5[1.05555555#576:1],1-5[1.08571429#560:1],1-4[1.117647058823529#544:1],1-6[1.151515151515152#528:1],
1q5[1.1875#512:1],1p5[1.225806451612903#496:1],1v6[1.266666666666667#480:1],1v4[1.310344827586207#464:1],
1p5[1.357142857142857#448:1],1q5[1.407407407407407#432:1],1v4[1.461538461538462#416:1],1v6[1.52#400:1],
1w5[1.583333333333333#384:1],1-5[1.652173913043478#368:1],1-6[1.727272727272727#352:1],1-4[1.80952380952381#336:1],
1q5[1.9#320:1],1p5[2#304:1],1-5[2.111111111111111#288:1],
{8}1w5[2.235294117647059#272:1],,,
{8}
7,6,5,4,3,,1,1,1h[8:5]/5b,,,,,,,,
3,2,1,8,7,,5,5,5h[8:5]/1b,,,,,,,,
7,6,5,4,3,,1,1,1h[8:5]/5b,,,,,,,,
3,2,1,8,7,,5,5,5h[8:5]/1b,,,,,,,
1bq5[76#8:1]*p5[76#8:1]*-4[76#8:1]*-6[76#8:1],1b-5[152#4:1]*w5[152#4:1],1b>4[8:1]*<6[8:1],,1b,
&inote_2=
&inote_3=
&inote_4=(132){1},
{4}1,,2,,3,,4,,5,,6,,7,,8,,
&inote_5=(132){1},{8}
&inote_7=(76){2},
{2}1-4[13#48:1],1-6[19#32:1],
{4}1-5[38#16:1],1!-6[8:1]*-5[8:1]*-4[8:1]*w5[8:1],1b,,
{2}8-3[13#48:1],8-5[19#32:1],
{4}8-4[38#16:1],8!-4[8:1]*-5[8:1]*-3[8:1]*w4[8:1],8b,,
{2}1p4[13#48:1],1q6[19#32:1],
{4}1-5[38#16:1],1!p4[8:1]*-5[8:1]*q6[8:1]*-5[8:1]*w5[8:1],1b,,
{2}8q4[13#48:1],8p4[19#32:1],
{512}8v3[38#16:1],8!v5[38#16:1],
{256},
{128},
{64},
{32},
{16},
{8},
{4}8!-4[8:1]*q4[8:1]*p4[8:1]*w4[8:1]*v3[8:1]*v5[8:1],8b,,
{2}1q5[13#48:1],8p4[19#32:1],
{4}1p5[38#16:1]/8q4[38#16:1],1!q5[8:1]*p4[8:1]/8!p4[8:1]*q5[8:1],1b/8b,,
{2}8<4[13#48:1],
{8}8>4[19#32:1],,8!>2[25#48:1]*<6[25#48:1],,8>3[38#21:1]*<5[38#21:1],,8!>4[8:1]*<4[8:1],,
{8}8b/4!w8[152#4:1],,,
{8}
7,6,5qq8[19#96:15],4,3,,1-5[4:1],
{64}1,,,,1?-5[304#1:1]*-5[304#1:1],,,,5h[8:5]/1b,,,,,,,,
{8}5?qq8[152#12:15]*qq8[152#12:15],,,,,,,
{8}
3,2,1qq4[19#96:15],8,7,,5-1[4:1],
{64}5,,,,5?-1[304#1:1]*-1[304#1:1],,,,1h[8:5]/5b,,,,,,,,
{8}1?qq4[152#12:15]*qq4[152#12:15],,,,,,,
7,6,5q1[25#12:1]*p1[25#12:1],4,3,,5,5,5bpp7[56#16:5]*qq3[56#16:5],,,,,,,,
3,2,1>4[25#12:1]*<6[25#12:1],8,7,,1,1,1bpp3[56#32:10]*qq7[56#32:10],,,,,,,
1b>4[8:1]*<6[8:1],1bq5[51#12:1]*p5[51#12:1]*-4[51#12:1]*-6[51#12:1],1b-5[8:1]*w5[8:1],,1b,,
1>4[14#44:1],8<5[15#40:1],2q6[12#52:1],6q2[13#48:1],,4>5[11#14:1],5<4[12#13:1],,,
1>4[8:1]/8<5[8:1],1>4[152#4:1]/8<5[152#4:1],1b/8b,,
2q6[8:1]/6q2[8:1],2q6[152#4:1]/6q2[152#4:1],2b/6b,,
4>5[2:1]/5<4[2:1],4>5[152#1:1]/5<4[152#1:1],4b/5b,,,,,,,
3-8[9#68:1],4-7[9#68:1],5-2[8#76:1],,6-1[9#68:1],,7h[8:1],8h[8:1],1h[8:1],2h[8:1],,8<1[10.85714285714286#14:1],1>8[11.69230769230769#13:1],,,
3-8[8:1]/4-7[8:1],3-8[152#4:1]/4-7[152#4:1],3b/4b,,
5-2[8:1]/6-1[8:1],5-2[152#4:1]/6-1[152#4:1],5b/6b,,
1>8[2:1]/8<1[2:1],1>8[152#1:1]/8<1[152#1:1],1b/8b,,,,,,
1$/2$/5!-2[8:1]/6!-1[8:1],12,5b/6b,,7$/8$/3!-8[8:1]/4!-7[8:1],78,3b/4b,,1-5[50.66666666666667#6:1],1,
{64}1w5[30.4#10:1],,,,1!-5[304#1:1]*-5[304#1:1],,,,,,,,,,,,,,,,,,,,,,,,,,,,,,,,1!w5[304#1:1]*w5[304#1:1],
{1},E
