&title=SIN
&artist=Esti
&first=0
&des=阿抹AIMO
&lv_5=14+
&inote_5=(190)
{1},
{8}4,5,3,5,4,5,
{8}2,6,3,5,4,6,5,6,
{8}6,5,7,5,6,4,5,2,
{8}6,5,7,5,6,4,6,5,
{8}4,5,3,5,1,4,3,5,
{8}2,6,3,5,4,6,5,{16}6,5,
{8}8,7,6,5,4,3,2,1,
{8}8,{16}1,2,{8}3,4,{16}8,7,6,5,4,3,2,1,
{8}2,8,1,26,2,1,18,7,
{8}2,18,7,3,21,4,8,6,
{8}7,1,8,73,7,8,81,2,
{8}7,81,2,6,78,5,2,4,
{8}2,8,1,26,2,1,18,7,
{8}2,18,7,3,21,4,8,6,
{16}4,5,4,5,4,5,4,5,4,5,4,5,4,5,4,5,
{16}3,2,1,8,5,6,7,8,2,1,8,7,6,7,8,1,
{16}2h[16:3],,,4h[16:3],,,1h[16:3],,,4h[16:3],,,8h[24:15],,,,,,
{24}6V47[16:5],5,4,3,2p5[8:1],1,,7,6,,,,,,,,,,,,,
{8}3/4h[4:1],,2,4/5h[4:1],,1,5/6h[4:1],,
{8}5,56,8,4h[4:1]/6,,7,5h[8:1]/3h[8:1],,
{8}4/2h[4:1],,6,5/3h[4:1],,8,6/4h[4:1],,
{8}6,46,1,4h[4:1]/3,,7,25,1b/8b,
{8}2b/7b,,7,5/4h[4:1],,6,4/3h[8:1],,
{8}43,43,1,5h[4:1]/3,,2,4h[8:1]/6h[8:1],,
{8}5/7h[4:1],,3,4/6h[4:1],,2,3/5,,
{8}53,53,8,5h[4:1]/6,,1,26,,
{8}1h[8:1],,1h[8:1],{16}4,1,4,1,6h[8:1],,1,6,1,6,
{16}4h[8:1],,6,4,6,4,1h[8:1],,6,1,4,6,{8}1-5[8:1],,
{8}1<6[8:1]/8,,3,2-7[8:1],,2,3,8,
{8}14,14,2,5h[16:5]/8h[4:1],,{16},,47,,58,,
{8}1pp6[8:3]/6,,,8h[4:1],,,5qq2[8:3]/7,,
{8},4h[4:1],,,{16}3h[16:3],,,2,,,1b/8b,,
{8}2b/7b,,6,7-2[8:1],,7,6,1,
{8}85,85,7,4h[16:5]/1h[4:1],,{16},,25,,41,,
{8}1<6[8:1]/6,,3,2-7[8:1],,2,3,,
{8}14,14,2,5/8,,6,58,7,
{4}1p5[4:1],,3p7[4:1],,
{4}5q1[4:1],,7q3[4:1],,
{24}1,,4,2,,5,3,5,4h[24:4],{8},8b,8b,5b,,
{8}7h[4:1]/4h[4:1],,,47,{16}4,3,2,1,8,1,2,3,
{16}1,8,7,6,8,7,6,5,7,8,1,2,6,5,4,3,
{8}8b-4[8:1],,,7b-4[8:1],,,6b-1[8:1],,
{8}5,5,2,3h[4:1]/4,,2,14,14,
{8}2h[4:1]/5h[4:1],,,52,{16}5,6,7,8,1,8,7,6,
{16}8,1,2,3,1,2,3,4,2,1,8,7,3,4,5,6,
{8}1b-5[8:1],,,2b-5[8:1],,,3b-8[8:1],,
{8},4b-8[8:1],,,,,,,
{8}5,4,12,4,5,18,5,45,
{8}7/8h[8:1],6,1/8h[8:1],6,12,{16}5,3,12,,,,
{8}4b/5b,4,18,{16}1b,8,{8}5,56,7/8,5,
{16}2b/1b,2,{8}4,8/1h[8:1],3b,34,{16}2,8,1-5[8:1]/8,,,,
{8}1b/8b,7,6,12,6,5,18,4,
{8}1h[8:1]/2,3,1h[8:1]/8,5,18,{16}7,8,18,,,,
{8}3b,4,1,18,5,6,78,5,
{8}56,78,12,18,18,{16}3,6,18,,45,,
{16},,,,,,8h[16:3],,,5h[16:3],,,1h[24:15],,,,,,
{24}3,4,5,6,7,8,,2,3,1,8,7,6,5,4,3,2,1,8,7,6,
{8}1b-5[2:1],,,,,,,,
{8}6b-8[2:1]/4b-2[2:1],,,,,,,,
{8}8b-4[2:1]*-4[2:1],,,,,,,,
{8}3b-1[2:1]*-1[2:1]/5b-7[2:1]*-7[2:1],,,,,,,,
{8}1bw5[2:1],,,,,,,,
{8}6bw2[2:1]/4bw8[2:1],,,,,,,,
{16}8b/7b,,7,6,{8}5,4,1,2,3,4,
{8}5bp1[8:1],{16},2,1v4[8:1]*v6[8:1],,{8},,,,,
{8}3,4/5h[8:1],7,6,4h[8:1]/5,2,3,4/5h[8:1],
{8}7,6,4h[8:1]/5,2,3,45,7,6,
{8}6,5/4h[8:1],2,3,5h[8:1]/4,7,6,5/4h[8:1],
{8}2,3,5h[8:1]/4,7,6,54,2,1b/8b,
{8}2b/7b,3/4h[8:1],8,7,6/5h[8:1],1,2,3/4h[8:1],
{8}8,7,6/5h[8:1],1,2,1/8h[8:1],7,2,
{8}5,4,3,4,5,6,5,4,
{8}3h[8:1],4h[8:1],2h[8:1],5h[8:1],7h[8:1],6h[8:1],8h[8:1],5h[8:1],
{24}1,2,3,{8}4>1[16:3],6,8<5[8:1],{16},,,,{18}2V48[4:1],1V75[9:2],8,7,,,,,,
{8},,,,34,12,
{24}8,7,6,{8}5<8[16:3],3,1>4[8:1],,1,5,12,
{8}3b/4b,1,5b/6b,8,4b/5b,7,3b/4b,6h[8:1],
{24}8b,7,6,{8}5<8[16:3],3,1>4[8:1],{16},,,,{18}7V51[4:1],8V24[9:2],1,2,,,,,,
{8},,,4,65,87,
{24}1,2,3,{8}4>1[16:3],6,8<5[8:1],{16},,,,{18}2V48[4:1],1,8,7,,,
{72},,,{8}5,6,7,18,23,45,67,
{8}7/8-6[8:1],1,18,8,7/8-5[8:1],1,18,8,
{8}7/8-4[8:1],1,18,8,8/6>3[8:1],7,68,1,
{8}2/1-3[8:1],8,81,1,2/1-4[8:1],8,81,1,
{8}2/1-5[8:1],8,81,1,3/1v6[8:1],4,12,8,
{8}7/8-4[8:1],1,18,8,2/1-5[8:1],8,81,1,
{8}7/8-4[8:1],1,18,8,2/1-5[8:1],8,71,6,
{8}4,4,35,{16}6,5,7,6,58,,3,4,2,3,
{16}14,8,7,6,8,1,2,3,5,4,3,2,4,5,6z2[16:13],7s3[4:3],
{1},,E
