&title=加油鸭
&artist=好好(张轩睿)
&first=0.088
&des=四哥
&lv_5=13+
&inote_5=(130){8},,,,,,,,E3/E5,B5/B2,E1/E7,,E7/E5,B4/B7,E1/E3,,7-4[8:1]/8-3[8:1],,7/8,4/3,2h[8:2]/5h[8:2],,,,
{16}3/5,,5,,,,3,5,3,,3/5,,3/5,,,,{8}3h[4:3]/4,5,6,7,8,7,6,5/3,{16}6,2,6,3,5,3,5,2,5/2,,,,,,,,
3-8[32:1]/5,,5-2[32:1],,B2,,B4,,6-1[32:1]/4,,4-7[32:1],,B7,,B5,,6h[8:1]/3h[8:1],,B6/B3,,2/7,,(260){8}8-5[16:1]/1-4[16:1],,E8/E2,,3-8[0##0.1],,1-6[0##0.1],,5-2[0##0.1],,
(130){16}6-1[32:1]/4,,4-7[32:1],,B7,,B5,,3-8[32:1]/5,,5-2[32:1],,B2,,B4,,3h[8:1]/6h[8:1],,B3/B6,,7/2,,(260){8}1-4[16:1]/8-5[16:1],,E2/E8,,6-1[0##0.1],,8-3[0##0.1],,4-7[0##0.1],,
(130){16}2-5[32:1]/8,,8-3[32:1],,B3,,B1,,7-4[32:1]/1,,1-6[32:1],,B6,,B8,,7h[8:1]/2h[8:1],,B7/B2,,3/6,,(260){8}5-8[16:1]/4-1[16:1],,E6/E4,,2-5[0##0.1],,4-7[0##0.1],,8-3[0##0.1],,
(130){16}7-4[32:1]/1,,1-6[32:1],,B6,,B8,,2-5[32:1]/8,,8-3[32:1],,B3,,B1,,(260){8}5-7[0##0.05]/4-1[0##0.05],,8-4[0##0.05]/1-3[0##0.05],,4-2[0##0.05]/5-8[0##0.05],,1-5[0##0.05]/8-6[0##0.05],,(260){8}8,,1,8,1x/8x,,1xb/8xb,,(130){16}
3p6[8:1],,7,,5,,4q1[8:1],,,,6,,7,,7/1,,6p2<7-4[8:2]/3q7>2-5[8:2],,6/3,,,,,,,,1x/8x,,1bx/8bx,,,,
6q3[8:1],,2,,4,,5p8[8:1],,,,3,,2,,2/8,,3q7>2-5[8:2]/6p2<7-4[8:2],,3/6,,,,,,,,,,8bx/1bx,,,,
2q7[8:1],,6,,8,,1p4[8:1],,,,7,,6,,6/4,,7q3<6-1[8:2]/2p6>3-8[8:2],,7/2,,,,,,,,4x/5x,,4bx/5bx,,,,
5-3[32:1],,7-1[32:1],,8-2[32:1],,6-4[32:1],,,,,,C,,,,7x/8x,,6x/5x,,4x/3x,,2x/1x,,Cf,,{32}8/1,7/2,6/3,5/4,{16}Ch[8:1],,,,
3-8[32:1]/5,,5-2[32:1],,B2,,B4,,6-1[32:1]/4,,4-7[32:1],,B7,,B5,,6h[8:1]/3h[8:1],,B6/B3,,2/7,,(260){8}8-5[16:1]/1-4[16:1],,E8/E2,,3-8[0##0.1],,1-6[0##0.1],,5-2[0##0.1],,
(130){16}6-1[32:1]/4,,4-7[32:1],,B7,,B5,,3-8[32:1]/5,,5-2[32:1],,B2,,B4,,3h[8:1]/6h[8:1],,B3/B6,,7/2,,(260){8}1-4[16:1]/8-5[16:1],,E2/E8,,6-1[0##0.1],,8-3[0##0.1],,4-7[0##0.1],,
(130){16}2-5[32:1]/8,,8-3[32:1],,B3,,B1,,7-4[32:1]/1,,1-6[32:1],,B6,,B8,,7h[8:1]/2h[8:1],,B7/B2,,3/6,,(260){8}5-8[16:1]/4-1[16:1],,E6/E4,,2-5[0##0.1],,4-7[0##0.1],,8-3[0##0.1],,
(130){16}7-4[32:1]/1,,1-6[32:1],,B6,,B8,,2-5[32:1]/8,,8-3[32:1],,B3,,B1,,(260){8}5-7[0##0.05]/4-1[0##0.05],,8-4[0##0.05]/1-3[0##0.05],,4-2[0##0.05]/5-8[0##0.05],,1-5[0##0.05]/8-6[0##0.05],,(260){8}8,,1,8,1x/8x,,1xb/8xb,,(130){16}
E1/B8/B1,,E8,E2,E7/B7/B6,,B2/B3/E3,,A5/E5/A4,,A6/E6/E4/A3,,A7/E8/E2/A2,,A8/E1/A1,,
E5/B5/B4,,E6,E4,E7/B6/B7,,B3/B2/E3,,7x/1x,,8x/2x,,8b/1b,,,,
E1/B8/B1,,E8,E2,E7/B7/B6,,B2/B3/E3,,A5/E5/A4,,A6/E6/E4/A3,,A7/E8/E2/A2,,A8/E1/A1,,
A8/A4,A7/A3,A6/A2,A5/A1,E2/E3/B2,,E8/E7/B7,,Ch[4:1],,,,,,{32},,B6/B3,E6/E4,
{16}5>2[16:1],,5/6,,7,,,{32}7/2,6/3,{16}4<7[16:1],,4/3,,2,,,{32}6/3,7/2,{16}8,3,6/2,7,5,1,7/3,4,6/3,,5,4,5,,,{32}4/5,6/3,
{16}8>3[16:1],,8/7,7,6,,,,{16}1<6[16:1],,1/2,2,3,,,,{16}5,2,7/3,6,8,4,6/2,1,7/2,,8,1,8,,{32}8/1,7/2,6/3,5/4,
{16}3p6[8:1],,7,,5,,4q1[8:1],,,,6,,7,,7/1,,6p2<7-4[8:2]/3q7>2-5[8:2],,6/3,,,,,,,,1x/8x,,1bx/8bx,,,,
6q3[8:1],,2,,4,,5p8[8:1],,,,3,,2,,2/8,,3q7>2-5[8:2]/6p2<7-4[8:2],,3/6,,,,,,,,,,8bx/1bx,,,,
2q7[8:1],,6,,8,,1p4[8:1],,,,7,,6,,6/4,,7q3<6-1[8:2]/2p6>3-8[8:2],,7/2,,,,,,,,4x/5x,,4bx/5bx,,,,
5-3[32:1],,7-1[32:1],,8-2[32:1],,6-4[32:1],,,,,,C,,,,7x/8x,,6x/5x,,4x/3x,,2x/1x,,Cf,,{32}8/1,7/2,6/3,5/4,{16}Ch[8:1],,,,
3-8[32:1]/5,,5-2[32:1],,B2,,B4,,6-1[32:1]/4,,4-7[32:1],,B7,,B5,,6h[8:1]/3h[8:1],,B6/B3,,2/7,,(260){8}8-5[16:1]/1-4[16:1],,E8/E2,,3-8[0##0.1],,1-6[0##0.1],,5-2[0##0.1],,
(130){16}6-1[32:1]/4,,4-7[32:1],,B7,,B5,,3-8[32:1]/5,,5-2[32:1],,B2,,B4,,3h[8:1]/6h[8:1],,B3/B6,,7/2,,(260){8}1-4[16:1]/8-5[16:1],,E2/E8,,6-1[0##0.1],,8-3[0##0.1],,4-7[0##0.1],,
(130){16}2-5[32:1]/8,,8-3[32:1],,B3,,B1,,7-4[32:1]/1,,1-6[32:1],,B6,,B8,,7h[8:1]/2h[8:1],,B7/B2,,3/6,,(260){8}5-8[16:1]/4-1[16:1],,E6/E4,,2-5[0##0.1],,4-7[0##0.1],,8-3[0##0.1],,
(130){16}7-4[32:1]/1,,1-6[32:1],,B6,,B8,,2-5[32:1]/8,,8-3[32:1],,B3,,B1,,(260){8}5-7[0##0.05]/4-1[0##0.05],,8-4[0##0.05]/1-3[0##0.05],,4-2[0##0.05]/5-8[0##0.05],,1-5[0##0.05]/8-6[0##0.05],,(260){8}8,,1,8,1x/8x,,1xb/8xb,,
(130){16}3-8[32:1]/5,,5-2[32:1],,B2,,B4,,6-1[32:1]/4,,4-7[32:1],,B7,,B5,,6h[8:1]/3h[8:1],,B6/B3,,2/7,,(260){8}8-5[16:1]/1-4[16:1],,E8/E2,,3-8[0##0.1],,1-6[0##0.1],,5-2[0##0.1],,
(130){16}6-1[32:1]/4,,4-7[32:1],,B7,,B5,,3-8[32:1]/5,,5-2[32:1],,B2,,B4,,3h[8:1]/6h[8:1],,B3/B6,,7/2,,(260){8}1-4[16:1]/8-5[16:1],,E2/E8,,6-1[0##0.1],,8-3[0##0.1],,4-7[0##0.1],,
(130){16}2-5[32:1]/8,,8-3[32:1],,B3,,B1,,7-4[32:1]/1,,1-6[32:1],,B6,,B8,,7h[8:1]/2h[8:1],,B7/B2,,3/6,,(260){8}5-8[16:1]/4-1[16:1],,E6/E4,,2-5[0##0.1],,4-7[0##0.1],,8-3[0##0.1],,
(130){16}7-4[32:1]/1,,1-6[32:1],,B6,,B8,,2-5[32:1]/8,,8-3[32:1],,B3,,B1,,(260){8}5-7[0##0.05]/4-1[0##0.05],,8-4[0##0.05]/1-3[0##0.05],,4-2[0##0.05]/5-8[0##0.05],,1-5[0##0.05]/8-6[0##0.05],,(260){8}8,,1,8,1x/8x,,1xb/8xb,,
7bx/2bx,,7bx/2bx,,7bx/2bx,,
