&title=[疑]天空のグリニッジ
&artist=ZUN
&first=0.102
&des=ASD
&des_5=ASD
&lv_5=14?
&inote_5=(240){4}4h[4:7]/7h[4:7],,,,,,,,{1}2h[2:3]/5h[2:3],
{4},,,6/5,
{1}5h[2:3]/1h[2:3],
{4},,,3/4,
4h[2:1]/8h[2:1],{2},{4}8>3[0.75##0.125]/4<7[0.75##0.125],
{16}7/3,{8},{16}6/2,{8},5/1,{2}4b/8b,
{8}5/2,3,4,5/7,6,5,{4}4/3,
{16}1-5[0.375##0.125],{8},{16}2,{8},1,{16}8-4[0.375##0.125],{8},{16}7,{8},8,
2,3,4/5,7,6,5/4,{4}3,
{16}4/5,{8},{16}6/3,{8},7/2,{16}1<6[0.1875##0.125]/8>3[0.1875##0.125],{8},{16}1b/8b,{4},{8}4/7,
6,5,4/2,3,4,{4}5/6,
{16}8-4[0.375##0.125],{8},{16}7,{8},8,{16}1-5[0.375##0.125],{8},{16}2,{8},1,
2,1,8,7/3,6/2,5/1,{4}4/8,
{16}7/3,{8},{16}5/1,{8},8/4,{2}2b>6[0##0.1875]/6b<2[0##0.1875],
{4}1-6[4:1],A1/6q3[4:1],A6/3-8[4:1],A3/8q5[4:1],
A8/5-2[4:1],A5/2q7[4:1],A2/7-4[4:1],A7/4q1[4:1],
A4/1>4[4:1],A1/4<7[4:1],A4/7>2[4:1],A7,
3b,2,1,8-3[4:1],
A8/3p6[4:1],A3/6-1[4:1],A6/1p4[4:1],A1/4-7[4:1],
A4/7p2[4:1],A7/2-5[4:1],A2/5p8[4:1],A5/8<5[4:1],
A8/5>2[4:1],A5/2<7[4:1],{2}A2,
{4}6/4,{8}3,4,2,6,5,7,
2-5-2-7-2[2:1],5,2,7,{4},6,
{16}2/5,{8},{16}6,{8},8,{16}7/4,{8},{16}3,{8},1,
7-4-7-2-7[2:1],4,7,2,{4},3,
{16}7/4,{8},{16}6/3,{8},8/1,{2}7/2,
{8}2-5-2-7-2[2:1],5,2,7,{4},6,
{16}2/5,{8},{16}6,{8},8,{16}7/4,{8},{16}3,{8},1,
7-4-7-2-7[2:1],4,7,2,{4},3,
{16}4/6,{8},{16}3/5,{8},5/4,{2}2b/7b,
{8}7-4-7-2-7[2:1],4,7,2,{4}2-4[8:1],2x,
{16}2/5,{8},{16}6,{8},8,{16}7/4,{8},{16}3,{8},1,
2-5-2-7-2[2:1],5,2,7,{4}7-5[8:1],7x,
{16}4/7,{8},{16}2/5,{8},3/6,{2}8/1,
{8}7-4-7-2-7[2:1],4,7,2,{4}2-4[8:1],2x,
{16}2/5,{8},{16}6,{8},8,{16}7/4,{8},{16}3,{8},1,
2-5-2-7-2[2:1],5,2,7,{4}7-5[8:1],7x,
{1}4b>5[0##0.8125],
(235){4}2h[2:1]/7h[2:1],{2},{4}1,
6,{8}2,7,3,8,{4}4>5[4:3],
{1}4,
{8}4/7,{16}6,5,{8}6,3,3,4,{4}5,
(240)1>4[8:1],1q5[8:1],1v6[8:1],1,
3/8,{8}2/4,3,5/7,6,{4}4/5,
8<5[8:1],8p4[8:1],8v3[8:1],8,
6/1,{8}7/5,6,4/2,3,{4}5/4,
1v6[8:1],1q5[8:1],1>4[8:1],1,
3x/8x,{8}2/4,3,5/7,6,{4}4/5,
{8}2h[4:1]/7h[4:1],{4},{8}1,3,2,8,6,
7,4/5,{4},{8}6,5,4,3,
{4}1q6[8:1],1p5[8:1],1q3[4:1],1,
,{8}5/7,6,5/3,4,{4}5/6,
8p3[8:1],8q4[8:1],8p6[4:1],8,
,{8}4/2,3,4/6,5,{4}4/3,
1q6[8:1],1p5[8:1],1q3[4:1],1,
,{8}5/7,6,5/3,4,{4}5/6,
8p3[8:1],8q4[8:1],8p6[4:1],8b,
,{8}4/2,3,4/6,5,{4}6/3,
1b-3[0##0.125],8b-4[0##0.125],1b-5[0##0.125],8b-6[0##0.125],
5/2,{8}6/4,5,4/2,3,{4}4/5,
8b-6[0##0.125],1b-5[0##0.125],8b-4[0##0.125],1b-3[0##0.125],
4/7,{8}3/5,4,5/7,6,{4}5/4,
1b-5[0##0.125],8b-6[0##0.125],1b-3[0##0.125],8b-4[0##0.125],
5/2,{8}6/4,5,4/2,3,{4}4/5,
{8}2h[4:1]/7h[4:1],{4},{8}3,4,2,6,5,
7,1/8,{4},{8}7,8,1,2,
{4}7b-3[0##0.125],8b-4[0##0.125],1b-5[0##0.125],2b-6[0##0.125],
3/8,{8}7/1,8,3/1,2,{4}8/1,
2b-6[0##0.125],1b-5[0##0.125],8b-4[0##0.125],7b-3[0##0.125],
6/1,{8}2/8,1,6/8,7,{4}1/8,
7bp3[0##0.125],8bp4[0##0.125],1bp5[0##0.125],2bp6[0##0.125],
,{8}7/1,8,3/1,2,{4}8/1,
2bq6[0##0.125],1bq5[0##0.125],8bq4[0##0.125],7bq3[0##0.125],
,{8}7/1,8,3/1,2,{4}6/3,
1-4[1##0.125],8-5[1.25##0.125],5-8[1##0.125],4-1[8:1],
{2}1b/4b,8b/5b,
{4}2-7[1##0.125],7-2[0.75##0.125],6-3[1##0.125],3-6[0.75##0.125],
{2}7b/2b,3b/6b,
{4}2-6[1##0.125],8-4[1.25##0.125],6-2[0.5##0.125],4-8[0.75##0.125],
{2}6b/2b,4b/8b,
{8}7h[4:1]/2h[4:1],{4},{8}6,5,8-4b[1##0.125],3,4,
1-5b[0.75##0.0625],7-3b[0.375##0.125]/2-6b[0.75##0.125],{4},{8}7x,8x,1x,2x,
{4}7-3[1.5##0.125],8-4[0.75##0.125],1-5[0.5##0.125],2-6[0.75##0.125],
{2}1b/8b,7b/2b,
{4}2-6[1.25##0.125],1-5[1.25##0.125],8-4[1##0.125],7-3[8:1],
7b,2b,{2}1b/8b,
{4}8v3[1.5##0.25],6v1[0.75##0.25],4v7[1##0.25],2v5[4:1],
{2}2b/6b,8b/4b,
{4}1v2[1.5##0.25],3v4[0.75##0.25],5v6[1##0.25],7v8[4:1],
{2}7b/3b,5b/1b,
{4}8-5[2:3],8-3[4:5],8-4[1:1],8,
{2},B8f/8bw4[0##0.25],
{4}1-6[2:3]*p5[2:3],1-4[4:5]*q5[4:5],1s5[1:1]*z5[1:1],1,
{2},B1f/1bw5[0##0.25]*w5[0##0.25],
{4}8<4[2:3],8>4[4:5],8V64[1:1],8bV24[0##1],
{2},E8f/E1f/8b<4[0##0.25]*>4[0##0.25]*V64[0##0.25]*V24[0##0.25],
{8}3h[4:1]/6h[4:1],{4},{8}2,1>4[1##0.375],3,7,8,
6,7/2,{4},{8}8/1,7,6,5,
{2}3-6[1##0.25]/6-3[1.25##0.25],7-2[1##0.25]/2-7[1.25##0.25],
{4}3b,A6f,7b,A2f,
1>7[1##0.75],3<7[1##0.5],5<7[1##0.25],8,
1b,A3f,{2}A5f,
1-5[1.5##0.25]/5-1[1.75##0.25],7-3[0.5##0.25]/3-7[0.75##0.25],
{4}7b,A3f,1b,A5f,
4<2[1##0.75],6<2[1##0.5],8>2[1##0.25],3,
4b,A6f,{2}A8f,
{8}2/5,{4},{8}3/4,{4},3,
{16}4,{8},{16}4,{8},3/5,{16}6,{8},{16}6,{8},5/7,
4,3,4,5,4,3,{4}4/6,
{16}4/2,{8},{16}5/7,{8},4/5,{2}2/7,
{8}2-5[8:1],3,2,7-4[8:1],6,7,{4}1,
{16}E7/B6/B5,{8},{16}8,{8},1,{16}E3/B3/B4,{8},{16}1,{8},8,
7-3[8:1],3,7,1-5[8:1],5,1,{4}8,
{16}B8/E8/B7,{8},{16}B3/E4/B4,{8},B6/E6/B5,{2}C/B1/E2/B2,
{8}6<1[8:1],4,6,3p7[8:1],5-1[8:1],3,{4}5,
{16}B2/B3/E3,{8},{16}B7/E7/B6,{8},B5/B4/E5,{16}E1/B8/B1,{8},{16}B2/B3/E3,{8},B7/E7/B6,
3>8[8:1],5,3,6q2[8:1],4-8[8:1],6,{4}4,
{16}2/1,{8},{16}3/8,{8},7/4,{2}5b-1[0##0.125]/6b-1[0##0.125],
{8}2>5[8:1],8,2,7-3[8:1],8-4[8:1],7,{4}8,
{16}B7/E7/B6,{8},{16}B2/B3/E3,{8},B5/E5/B4,{16}E1/B8/B1,{8},{16}B7/E7/B6,{8},B2/B3/E3,
8-4[8:1],2-6[8:1],8,2,{4}5,5<4[2:1],
{1}5b/Cf,
{8}1-4-1-6-1[2:1],4,1,6,{4}6-4[8:1],6x,
{16}8-4[0.375##0.125],{8},{16}7,{8},8,{16}1-5[0.375##0.125],{8},{16}2,{8},1,
8-5-8-3-8[2:1],5x,8,3,{4}3-5[8:1],3x,
{16}2/8,{8},{16}1/7,{8},3/6,{2}8/1,
{8}1-4-1-6-1[2:1],4,1,6,{4}6-4[8:1],6x,
{16}8-4[0.375##0.125],{8},{16}7,{8},8,{16}1-5[0.375##0.125],{8},{16}2,{8},1,
8-5-8-3-8[2:1],5x,8,3,{4}3-5[8:1],3x,
{16}6/4,{8},{16}5/3,{8},1/8,{2}6b/3b,
{8}8-5-8-3-8[2:1],5x,8,3,{4}4-1[8:1],4x,
{16}2-6[0.375##0.125],{8},{16}3,{8},2,{16}8-4[0.375##0.125],{8},{16}7,{8},8,
1-4-1-6-1[2:1],4x,1,6,{4}5-8[8:1],5x,
{16}7/1,{8},{16}8/2,{8},3/6,{2}1/8,
{8}8-5-8-3-8[2:1],5x,8,3,{4}4-1[8:1],4x,
{16}2-6[0.375##0.125],{8},{16}3,{8},2,{16}8-4[0.375##0.125],{8},{16}7,{8},8,
1-4-1-6-1[2:1],4x,1,6,{4}5-8[8:1],5x,
{1}5b<4b[0##1]/1b-5b[0##0.125],
E
