&title=Energy of the Star
&artist=BlackY/Yooh/nora2r/kanone
&first=0
&des=starless83
&lv_5=14
&des_5=starless83
&inote_5=
(185.04){4},5/3h[1:1],5,4,
4,5,{2}5x-1[8:1]/2x-4[8:1],
{4},4/6h[1:1],4,5,
5,4,{2}4-8[8:1]/7-5[8:1],
{4},4/5,4/5,4/3,
4/5,5/6,5/4,1/2,
5/4,8/7,5/4,1/2h[4:1],
4,8/7h[4:1],5,1-5[8:1]/8-4[8:1],
{8},,7bx,7,4,4,6,6,
2,2,4,4,3,3,7,7,
1,1,8x-4[8:1],8,2-5[8:1],2,7-4[8:1],7,
2-6[8:1],2,7-3[8:1],7,8-4[8:1],8,1-5[8:1],1,
,,2x/4,2,5/3x,3,6/4x,4,
5x/7,5,8x/4,8,7x/3,7,2/6x,6,
{4}1/5,{16}2x,4,2,4,2,4,{8}2,{16}3x,5,3,5,
3,5,3,5,4x,5,4,5,3x,6,3,6,2x,7,2,7,
1x,8,1,8,{4}Cf/1>8[2:7],,,,,,,,,,,,,,,,8<1[2:7],
,,,B7/B6,
,,,B5/B4,
,,,Ch[4:3],
,,,4x-2[4:1],
5,C,
6,7-5[4:1],8,C,
1,2-8[4:1],3,C,
4,5-3[4:1],6,C,
7,8-2[4:1],7,C,
6,5-7[4:1],4,C,
3,2-4[4:1],1,C,
8,7-1[4:1],6,C,
5,3x/4,3,{8}3,{16}3,4,
{8}3,3,{4}5/6,6,{8}6,{16}6,5,
{8}6,6,{4}5h[4:1]/6xh[4:1],,3h[4:1]/4h[4:1],
,8h[8:1]/2h[8:1],5h[8:1]/6h[8:1],1h[8:1]/7h[8:1],
3h[8:1]/4h[8:1],2x/1,2,{8}2,{16}2,1,
{8}2,2,{4}8/7x,7,{8}7,{16}7,8,
{8}7,7,{4}3x/C,,6/C,
{8},,2pp8[2:1],5,6,7,{4}8w4[8:1],
,6bx/2bx,{8}1,2/8,3/7-4[8:1],8,
{4}7/2-5[8:1],2,{8}6/2>5[8:1],1,{4}2/5,
{8}8,{16}8/4,7/3,{4}2/6,{8}1,2,3/7-3[8:1],8,
{4}7/3,1,{8}2/6,1/5,{4}2-5[8:1]/6-1[8:1],
Cf,3/7,{8}8,7/1,6/2-5[8:1],1,
2/7-4[8:1],8,{4}7,{8}3/7<4[8:1],8,{4}7/4,
{8}1,{16}1/5,2/6,{8}7/3,4>1[8:1],5,6,7<4[8:1],8,
1,2<7[8:1],3,4,5>2[8:1],6,7,8<5[8:1],
1,2,{4}3x-8[8:1],{8}4,5,4/3-8[8:1],5,
{4}4,4/3-8[8:1],{8}4,4,{4}4/3>8[8:1],
{16}4,5,{8}6,{4}6/3-8[8:1],{8}6,6,6/3>8[8:1],5,
{4}6,6/3-8[8:1],{8}6,5,{4}6/8xp4[16:1]*q4[16:1],
,6x-1[8:1],{8}5,4,5/6<1[8:1],5,
{4}5,5/6-1[8:1],{8}5,5,{4}5/6<1[8:1],
{16}5,4,{8}3,{4}3/6-1[8:1],{8}3,4,3/6<1[8:1],4,
{4}3,{8}B2,B5,B4,B7,C,B8,
{4}B1,8x/1x-5[8:1],6,8/1-3[8:1],
6,{8}8/1-5[8:1],7,6,7,8/1-3[8:1],7,
{4}6,8/1-5[8:1],6,8/1-3[8:1],
6,{8}8/1-5[8:1],7,6,7,8/1-3[8:1],8,
{4}8/A3f,1x/8x-4[8:1],3,1/8-6[8:1],
3,{8}1/8-4[8:1],2,3,2,1/8-6[8:1],2,
{4}3,1/8-4[8:1],3,1/8-6[8:1],
3,{8}8<5[8:1],1,2,3,4>1[8:1],5,
6,7,8bx/1bx,3,3,3,3,3,
{16}2,5,3,4,{4}3h[4:1],{8}6,6,6,6,
{16}6,4,7,5,{4}6h[4:1],{8}3,3,3,3,
{16}8,3,1,2,{4}1h[16:3]/2-5[8:1],{8}2,6,8/1,5/6,
{4}7/Ch[4:1],{8}6,6,6,6,6/3x,3,
3,3,7x/3,7,7,7,1x/7,1,
1,1,{16}1x/5,2,3,4,5x/1,6,7,8,1x/5,2,3,4,
5x/1,6,7,8,{4}1h[2:1]/5xh[2:1],,,1v4[8:1]/5v8[8:1],
1b/5b/Cf,2/6,{32}1>5[8:1],,,,,7,,7,
{8}1,8,{4}8-4[8:1],8/4,{16}2-6[8:1],3,,,{8}5/2,
8,{4}7-3[8:1],7/3,{16}1/2>5[8:1],,,6,
{4}6>7[8:7],{8}4,3,2,1,5,4,
3,2,{4}1b/2b-5[8:1],2/8h[4:1],{32}3>8[8:1],,,,,5,,5,
{4}3,4/5<1[4:1],{16}1b,2,3,4,{8}5,3/7,
6/2,1/5,{4}8-3[8:1]/4-7[8:1],4/8,{32}8<4[8:1],,,,,2,,2,
{8}8,1,7/1,6/5,8/2,3/4,6/1,4/5,
{4}1/Cf,{8}5/1>4[8:1],5,5/1-6[8:1],5,5/1>3[8:1],5,
{4}5/1,{16}8,7,4,5,2,1,4,5,8,7,4,5,
{4}2h[8:1]/6h[4:1],{8}3,5/3,3x,6/3,3x,7/3,
3x,6/1,7,{32}8,,,4/3,,,,2,,1,,,{16}5,6,,1,
{4}8<6[8:1],{8}1x/8-5[8:1],1,2x/8-4[8:1],2,8/3x,3h[8:1],
{16},,7,8,5,4,1,2,5,4,7,8,5,4,2,1,
{4}7xh[4:1]/4>2[8:1],{8}4-1[8:1],6,6x/4-8[8:1],7,{4}4/7x,
{8}6/2,8,7,{16}3,4,,1,{8}8,{16}5,7,,,{8}5x/1,
3x/7,{4}8b/1b-5[8:1],{8}6,6,{4}8x/2-5[8:1],
{8}6x,6,{16}1x/2-4[8:1],,,1x,{8}2x,7x,{16}5x,6,3,5,
4,6,{8}5,{4}1bx/7b-3[8:1],{8}2x,2,{4}1x/7-4[8:1],
{8}3x,3,{16}8x/7-5[8:1],,,8x,{8}7x,3x,4x,2/1,
{4}5/3,{8}6x/8x-4[8:1],7/1,{4}2,{8}7x/1x-5[8:1],8/2,
{4}3,{8}7x/2-6[8:1],1,2x/7<4[8:1],8,7/1x-5[8:1],2,
{4}1x/6,{8}3x/1x-5[8:1],2/8,{4}7,{8}2x/8x-4[8:1],1/7,
{4}6,{8}2x/8p4[8:1],7,8x/3-6[8:1],2,3/8xq4[8:1],7,
{4}8x/3,{8}5/1,3,1/6,3,1/7,3,
{16}1/8,7,4,6,5,6,{8}5,8/4,6,8/3,6,
8/2,6,{16}8/1b-6b[8:1],2,{8}3-8[8:1],1,3,{16}5b-2b[8:1],6,{8}7-4[8:1],
{4}5,{16}1,2,3,4,5/1,8,7,6,5/1,2,3,4,
5/1,8,7,6,{4}5/1<7b[8:1],{8}4/1-3b[8:1],4,5/1-6b[8:1],5,
1/4,4b,{4}1/8-6b[8:1],{8}4/8-3b[8:1],4b,5/8<5b[8:1],5b,
4/8,4b,{16}1,2,3,4,8,7,6,5,{32}1,2,3,4,5,6,7,8,
1,2,3,4,5,6,7,8,{4}1/5p4[2:1],,,1w5[8:1],
{32}1b,B1,C,B5,,,,,{8}2/7,{16}3,3,{8}8,1/7,
2/6-8-5-1[8:3],3,4,2,{4}3,{16}8,5,{8}6,
3-1[8:1]/7-4[8:1],4/8,{4}7b/3b,{8}6/2,{16}7,7,{8}4,5/3,
6/2-4-1-5[8:3],7,8,6,{4}7,{16}4,1x,2,2x,
{8}7-5[8:1]/3-8[8:1],8/4x,{4}3b/7b,{8}2/7,{16}3,3,{8}8,1/7,
2/6-8-5-1[8:3],3,4,{16}2,2x,3,3x,,,8,5,{8}6,
3-1[8:1]/7-4[8:1],4/8,{4}7b/3b,{8}6/2,{16}7,7,{8}4,5/3,
6/2-5b[8:1],7,{4}2/5-8b[8:1],5x/8-3b[8:1],8x/3x-6b[8:1],
3x/6xw2b[8:1],{32}6bx,B6,C,B2f,,,,,{8}4/8,{16}6,6,{8}1,8/2,
7/3>8-4-2[8:3],6,5,7,{4}6,{16}1,4,{8}3,
6-1[8:1]/2-6[8:1],5/1,{4}2b/6b,{8}2/7,{16}3,3,{8}8,1/7,
2/6<1-5-7[8:3],3,4,{16}2,2x,3,3x,,,8,5x,6,6x,
{8}3-8[8:1]/7-3[8:1],4/8,{4}7bx/3bx,{8}2/7,3,8,1/7,
{16}6<1[8:1],2,{8}6,,4,{16}3>8[8:1],7,{8}3,,5,
3-8[8:1]/6-3[8:1],4/7,{4}6b/3b,{8}2/7,{16}3,5,4,6,5,7,
3,8,3,6,1,6,2,5,2,4,3,6,5,7,4,8,
3,7,2,6,{4}Cf/B5/B4/1b>8[2:3],{8},,,,,,,,,,,,,,6h[8:3],
3,4,5,3h[4:1],4,
{4}4,{8}3h[8:3],6,5,4,6h[4:1],5,
{4}5,{8}6h[8:3],3,4,5,3h[4:1],4,
{4}4,{8}3h[8:3],6,5,4,6h[4:1],5,
{4}5,{8}6h[4:1],4,5,3h[4:1],5,4,
2/5,3h[4:1],5,4,6h[4:1],4,5,7/4,
,,3h[4:1],4,4,5h[4:1],4,4,
{4}5/3,{8}3h[4:1],4,4,5h[4:1],4,4,
{4}5/3,{8}6h[4:1],5,5,4h[4:1],5,5,
{4}4/6,{8}6h[4:1],5,5,4h[4:1],5,5,
{4}4/6,5/6h[4:13],5,4,
4,3,3,2,
2,1,1,8,
8,7,7,6/7-3[8:1],
E
