&title=GIMME DA BLOOD
&artist=C-Show
&first=0.03
&des=かぜきよ
&des_5=かぜきよ
&lv_5=14
&inote_5=(110){4},,,,{64}1bp1>5[8:5],
2/8,3/7,4/6,{16}5p5<1b[16:9],,,,,,,,,,,,,,,{8}3h[8:3]/7v4[16:1],
8,{4}7,{16}7-3[16:1]/3-7[16:1],,,C,{64},,,,,,,,,,,,,,,,8b-5V74b[2:1]*-3V14b[2:1],
7/1,6/2,5/3,{16}4,,,{4}C,,,5h[2:1]/4>5[8:3],
{16},,,,,,,,1-4[16:1]*-6[16:1],5,,5,
{4}1b-5[16:1],1w5[16:1],{48}B1,Cf,{24}B6/B5/B4,{48},,,,,,,,{16}4x-1[16:1]*-7[16:1],8,,8,
{4}4b-8[16:1],4w8[16:1],{48}B4,Cf,{24}B7/B8/B1,{48},,,,,,,,,,,{16}4x/6x,{8}3x/7x,
2b/8b,{32}6,5,6,5,{8}4x/7,{32}3,4,3,4,{8}2/5x,{16}1/7,7h[8:1]/1h[16:5],,,,,7s3[8:1],
5h[16:1],3z7b[8:1],5h[16:1],7,5,,,{8}1w5b[16:1],{16}2/8,1,,,,,{8}4bxh[4:1]/2bx-6[8:1],
6bx-1-5[16:3],{16}2,4x-8z4b[4:1],4,4h[8:1],,,,,,2-5[16:1]*-7[16:1],6x,6x,
{4}2,{16}2-4[16:1],4-8[16:1],8-6[16:1],2x/6-2[16:1],,5h[8:1],,,,C,,,{8}5h[8:3]/7v4[16:1],
4v7[16:1],{4}7,{16}5x-1[16:1],4,3,5,,2-5-8[8:1],7,6,
{8}2,7,{16}1xV35[400:49],2xV46b[400:49],5V71[400:49],6V82b[400:49],{2}1/Ch[8:1],
{8}5bh[4:1]/7b-3[8:1],3b-8-4[16:3],{16},5x-1s5b[4:1],5,5h[8:1],,,,,,7-3[16:1]*-5[16:1],4x,4x,
{4}7,{16}7-4[16:1],4-8[16:1],8-3[16:1],7x/3-7[16:1],,2h[8:1],,,,Ch[8:1],,,6bx/2bxh[8:1],
,,2/6,7-5b[16:1],3-1b[16:1],7v4[16:1],3v8[16:1],7,3,7,3,{4}C,
4h[4:1]/2-6-2[8:1],{16}2,,,1x/4v7[16:1],,5/8v3[16:1],,4,,8,,,{1}5bxV71-5[2:1]*V31-5[2:1],
4b-1V38[2:1]*-7V58[2:1],
{8}1b/5b,{32}3,4,3,4,{8}2/5x,{32}6,5,6,5,{8}7/4x,{16}1,2v5[16:1]/8v5[16:1],,3/7,,,,,,,,,,,C,
,,,,B8,B4,C,
{4}2bxh[8:1]/6bxh[8:1],{16}2/6,4/8,,2V86b[8:1]/6V82b[8:1],,6V42b[8:1]/2V46b[8:1],4x,2/6,,,,,{4}C/B6/B2,
{16}2/6,1>3[24:1]/5<7[24:1],2/6,1x<7b[24:1]/5x>3b[24:1],,1q5[16:1]/5q1[16:1],,1/5,,,,,{8}5bxh[8:1]/7bxv4[16:1],
3xv8[16:1],7x/5xV31V75[16:3],3x,{4}5x,{16}8-4[16:1],7,2-6[16:1],3,
{8}8<5[16:1],2>5[16:1],8-3[16:1],2-7[16:1],8w4[16:1],2,{4}8,
7bh[8:1]/3bh[8:1],{16}7/3,5/1,,3>7b[12:1]/7<3b[12:1],,3V57[12:1]/7V13[12:1],3/7,3/7,,,,,{4}C/B1/B5,
{16}3/7,2-8b[24:1]/6-8[24:1],3/7,2x-4[24:1]/6x-4b[24:1],,2xv5[16:1]/6xv1[16:1],,6/2,,,,,{8}4bxh[8:1]/8x-4[16:1],
{16}8x,8x,{8}8x,8x<4[12:1]*>4[12:1],{32}4xw8[16:1],4x,{16}4x,{8}A8,{4}A4,
{16}A3,A4,A5,A6,E3,E4,E6,E7,E5,C,,,,4,5,6,
{4}3b/7bqq4[2:1],B6/E6/B5,,B1/E2/B2,
2pp5[2:1],B3/B4/E4,,E8/B7/B8,
3b/7bpp4[2:1],B8/E1/B1,,B2/B3/E3,
2qq5[2:1],B8/E1/B1,,B7/E7/B6,
(105){48}8bx/4bxh[8:1],B8,Cf,B4,{4},{16},,{24},(100){48}1bx/5bxh[8:1],B1,Cf,B5,{4},{16},,{24},(95){48}7bx/3bxh[8:1],
B7,Cf,B3,{4},{16},,{24},(90){48}2bx/6bxh[8:1],B2,Cf,B6,{4},{16},,{24},(87){48}1bx/5bxh[16:1],
B1,Cf,B5,,,{8}4x,3x,2x,{16}1/5,5/1,5/1,5/1,5/1,5/1,5/1s5b[4:1],5/1,
{8}1/5<4[2:1],,,,,,,C,
{4}3b/7b,C,{16}2z6[8:1],4h[16:1],6-2[16:1],4h[8:1],,,,,8bv1[16:1],
{32}6,5,{16}6,7V53[16:1],8,5v2[16:1],5x,3xw7[16:1],,5,,3,,E1,E5,C,
{4}2b>4[16:1]/6b<8[16:1],{16}2/6,,,1x<7b[24:1]/5x>3b[24:1],,3x>1v4[48:5]/7x<5v8[48:5],8/4,5/1,,,,,{4}7bxqq5[16:1]/3bxqq1[16:1],
{16}3/7,,,8x-2b[24:1]/4x-6b[24:1],,6x-8v5[8:1]/2x-4v1[8:1],5/1,8/4,,,,,2bv5[16:1],
{32}3,4,{16}3V57[16:1],3/4h[8:1],{8}2,3,{16}1s5[8:1],4h[16:1],5-1[16:1],4h[16:3],,,,,4bv5[16:1],
{32}2,1,{16}2,3V17[16:1],4,1v6[16:1],1x,7xw3[16:1],,1,,7,,E7,E3,C,
{8}4h[4:1]/1b>6v3[32:5],B5/E5/B4,{4}1,{16}7pp4[16:3],7h[8:1],,B8/E1/B1,,,,,{8}8h[4:1]/5b<2v7[32:5],
B1/E1/B8,{4}5,{16}3pp8[16:3],3h[8:1],,B4/E5/B5,,,,,(90){4}3/6-4[24:1],
4/A6,(95)6/3-5[24:1],5/A3,
(100)3/7v4[16:1],4/A7,(105)6/2v5[16:1],5/A2,
(110)7/1-5[16:1],5/A1,2/8-4[16:1],4/A8,
{8}5/1>4[16:1],4/8<5[16:1],1,8,1s5[16:1]/8z4[16:1],3/6,{4}1/8,
{8}4bh[4:1]/7bpp5[8:1],3,{16},,,3-1[16:1]*-7[16:1],,4/2,,3,,8x,8x,8x,
7bh[4:1]/3bpp1[8:1],,,,,,,7-5[16:1]*-3[16:1],,6/8,,7,,E3,E7,C,
3x/7xh[8:1],,,7/3,6-8b[16:1],2-4b[16:1],6v1[16:1],2v5[16:1],6,2,6,2,{4}C,
6h[4:1]/2v5v2[8:1],{16}2,,,4/7v4[16:1],,8/3v8[16:1],,7,,3,,,{8}4xh[4:1]/2x-6[8:1],
6x-1-5[16:3],{16}2,4x-8z4b[4:1],4,4h[8:1],,,,,,2-5[16:1]*-7[16:1],6,6,
{4}2,{16}7<5[16:1],5-1[16:1],1>3[16:1],7x/3-7[16:1],,4h[8:1],,,,1x,{8}2x/8x,
3b/7b,{32}6-8[16:1]*-2[16:1],5,6,5,{8}7,6,{32}3-8[16:1]*-6[16:1],4x,3x,4x,{8}2,3,C,
{16}4/2z6b[8:1],4h[16:1],6s2[8:1],4h[16:1],2,4,,,{8}8xw4b[16:1],{16}7/1,8,{64},,,,,,,,,,,,,,,,1b,
2/8,3/7,4/6,{16}5,
E
