&title=AMiDARA PIERROT
&artist=onoken
&first=0
&des=Rebirh of Valsqotch
&lv_5=14+
&inote_5=(107){1},
{8}6h[8:1]/5^3[8:1],,7h[4:1],,5^3[8:1],6h[8:1],,,
{8}6h[8:1]/5^3[8:1],,7h[4:1],,5^3[8:1],6h[8:1],,,
{8}3h[8:1]/4-6[8:1],,2h[4:1],,4-6[8:1],3h[8:1],,,
{8}3h[8:1]/4-6[8:1],,2h[4:1],,4-8[8:1]*-6[8:1],3,4b,,
{24}1q5[8:1]/5,,,6,,6,1,,,7,,,8p4[8:1]/4,,,3,,3,8,,,2,,,
{24}2q6[8:1]/6,,,7,,7,2,,,8,,,7p3[8:1]/3,,,2,,2,7,,,1,,,
{24}2/7,,2,5,,5,3,,3,8,,8,1,,1,6,,6,4,,4,7,,7,
{24}2,1,2,7,8,7,3,4,2,6,5,7,{4}1w5[8:1],1b,
{24}3-8[8:1]/8,,2,4,,4,3,,,7,,,6v3[8:1]*-1[8:1],,,57,,,6,,,,,,
{24}2,,2,4,,4,5,,,47,,,2h[8:1],,,{24}1-5[8:1],8,7,62,,,71,,,
{24}6h[8:1],,,{24}4,5,3,4h[8:1],,,3-5[12:1],4,2,1-5[12:1],,,{24}3-8[12:1],,,{8}1,3,
{24}7h[8:1],,,{24}1,8,2,1h[8:1],,,2-8[12:1],1,3,4-8[12:1],,,{24}2-5[12:1],,,{8}4,2,
{24}6-3[12:1]*-1[12:1],,,,,,6b,,,,,,3v6[8:1]*-8[8:1],,,42,,,3,,,,,,
{24}7,,7,5,,5,4,,,52,,,7h[8:1],,,{24}8-4[8:1],1,2,37,,,28,,,
{24}3h[8:1],,,{24}5,4,6,5h[8:1],,,6-2[12:1],5,7,8-4[12:1],,,{24}6^1[12:1],,,{8}8,6,
{24}2h[8:1],,,{24}8,1,7,8h[8:1],,,7-3[12:1],8,6,5-1[12:1],,,{24}7^4[12:1],,,{8}5,7,
{24}3^8[8:1],,,2,,4,3,,,7,,,8h[8:1]/2,,,{24}1,8,2,{8}1,23,
{24}6,,6,5,,5,{8}4-2[12:1]*-6[12:1],35,4,,{24}2-5[8:1],,2,1,,1,
{24}2,,,,,,7-4[8:1],,7,8,,8,7-1[8:1],,,8,,,72,,,2,,,
{24}3,,3,4,,4,{8}5-3[12:1]*-7[12:1],46,5,,1b/8b,27,
{24}3-5[12:1],,,2,,5,3^8[12:1],,,6,,,3-5[12:1],,,7,,5,{8}3,8,
{24}7,,7,5,,5,4,,4,2,,2,4,3,6,{8}5h[8:1],8-4[12:1],{24}3,4,1,
{24}8,,,2,,,6,,6,2,,2,4,,4,3,5,4,8,,8,5,,5,
4,,4,3,,3,1,,1,8,,8,7,,7,4,,4,{24}6,5,6,74,,,
3,4,3,6,5,6,2,1,2,7,8,7,3,4,2,6,5,7,2,4,2,7,5,7,
1,1,3,8,8,6,2,2,4,7,7,5,{8}1w5[12:1],,1b,,
{8}5-1[16:1],,6b,{24}7,8,7,{8}8-5[12:1],16,,{24}3x,4,3,
{24}5,4,5,3,4,3,5-1[12:1],4,5,3-7[12:1],4,3,{8}5-7[16:1],3V51[16:2],,,
{8}7h[8:1],,5b/6b,{24}2,1,2,1-5[8:1],3,4,3,5,4,{4},
7xbq4[16:2]*p2[8:1],,{24}3-7[16:1],,3,7-3[16:1],,7,3,,,,,,
{8}5x-7[16:1]*-3[16:1],,,{24}8x,1,8,2-4[12:1],1,2,8-4[12:1],1,8,{8}2V86[8:1],8,
{8}5,5,{24}4x,4x,4x,4x,,,{24}1-3[12:1],,2,7-3[12:1],,6,1-6[16:1]*V74[8:5],,,7,,,
{4}1bs5[8:3],,,2b/7b,
{64}2-6[16:1]/6-2[16:1],,,,{16},{8},{4}C,{24}1-5[12:1]/8,,,8,2,7,1,,,,,,
{24}6bh[8:1],,,2,5,4,8bh[8:1],,,3,7,1,4bh[8:1],,,1,5,2,6b,4,5,2,,,
{24}3b,4,2,1b,2,8,4b-8[8:1],5,3,8bv5[8:1]*v3[8:1],2,7,,,,,,,,,,,,,
{8}2^4[8:1],4,5,,2^4[8:1],4,5,,
2^4[8:1],4,5,,2^4[8:1],4,5,,
{8}7-5[8:1],5,4,,7-5[8:1],5,4,,
7-5[8:1],5,4,,7b-5[12:1]/2b-4[12:1],{24}1,8,1,2b/7b,,,,,,
{24}4-7[12:1],,,5,,3,4-1[12:1],,,2,,,4/1-4[12:1],,,8,,,51,,,{24}6,5,7,
{24}8p4[12:1],,7,2q6[12:1],,3,8,,,2,,,8h[8:1],,,{24}1-5[8:1],2,3,84,,,13,,,
{24}3h[8:1],,,{24}6,5,7,8-6[12:1],,,3-1[12:1],4,2,8-4-8[12:2],,,{24}3,,,{8}8,,
{24}2h[8:1],,,{24}7,8,6,5-7[12:1],,,2-4[12:1],1,3,5-1-5[12:2],,,{24}2,,,{8}5,,
{24}4x,6,2,4h[8:1],,,2,4,3,3,6,5,7-1[16:1],3,4,1-5[16:1],6,2,,,,,,,
{24}3x,4,1,7h[8:1],,,3,1,2,2,7,8,6-4[16:1],2,1,4-8[16:1],7,3,,,,,,,
{24}1x,7,3,1h[8:1],,,2,4,3,7,5,6,2,1,2,7,8,6,5,6,4,7,2,6,
{24}4x,6,2,4h[8:1],,,2,4,3,3,6,5,7-1[16:1],3,4,1-6[16:1],6,2,,,,,,,
2x,8,4,6,8,4,2,8,4,6,8,4,2,1,3,8-4[16:1],1,7,4,5,3,,,,
7x,1,5,3,1,5,7,1,5,3,1,5,7,8,6,4-8[16:1],5,3,8,1,7,,,,
3x,4,1,6,5,8,3,5,1,2b/7b,,,7x,8,5,2,1,4,7,1,5,6b/3b,,,
{48}1,2,3,8,7,6,1,2,3,8,7,6,2,3,4,7,6,5,2,3,4,7,6,5,
{48}1,2,3,4,5,6,7,8,1,2,3,4,{1}5b/Cf,
