&title=MAdEaR MAdEaR
&artist=SLAVE.V-V-R feat. 東雲はる
&first=0.093
&des=CH3COOL
&lv_5=13
&inote_4=
&inote_5=(200)
{8},,,,,,,,
{8}3-5s1V73[4:7],,,,,,,,
{8},,,,,,,,
{8},,1,,8,,7,,
{8}2h[8:2]/6h[8:2],,,2v3[4:1]/6v7[4:1],,,,,
{8},,8,,1,,2,,
{8}7h[8:2]/3h[8:2],,,7v6[4:1]/3v2[4:1],,,,,
{8},,1,,8,,7,,
{8}2/6>3[8:5],2/6,,2h[4:2],,,,,
{8},,1,,8,,7,,
{8}2b/6b,2bq6b[8:1]/6bq2b[8:1],,,,,,8b/4b,
{8},6b,6b-3b[8:1],,,,,,
{8}1b/4b,1b-4b[8:1]/4b,,,,,,8b,
{8},2b/6b,2b/6b,2b>5b[8:1]/6b<1b[8:1],,,,,
{8}3-6[8:1],,7-2[8:1],,4-1[8:1],,8-4[8:1],,
{8}2-5[8:1],,7-3[8:1],,4-6[8:1],,8-4[8:1],,
{8}2b,,,,,,,8b/4b,
{8},,,,,,,2b/6b,
{8},,,,,,,1bs5b[4:2]/7b-3-7b[8:4],
{8},,,,,,,,
{8},,3,,6/5,,1h[8:7],,
{8}3h[8:2],,,3-8[8:1],,,,6/5,
{8},,,4,,6/7,,1,
{8}4h[8:5],,3,,,2h[8:3],,,
{8}1,,3,,6/5,8,,2h[16:5],
{8},{16},4,,,{16}5,4,{8},{16},2,{8},{16},1h[16:5],
{8},,3,4h[4:1],,3h[4:1],,2<7[8:1],
{8},,,5,5h[4:1],,1-4[8:1],1,
{8},,5>2[4:2],,5h[4:2],,,,
{8},,4/2h[4:1],,1,,6h[4:2]/7,,
{8},,5,,1/4,,2h[4:2]/3,,
{8},,1,,5/6,,2/3,,
{8}7b/8b,,3b/4b,,7b/6b,,1b/2b,,
{8},,5h[4:1]/7,,2,,1h[4:1]/3,,
{8}8>3[8:1],8,,7,,,6<1[4:1],,
{8}6,,3-6[8:1],,7-3[8:1],,8<5[8:1],,
{8}4-8[8:1],,4-1[8:1],,4-7[8:1],,,,
{8},,6-3[8:1],,2-6[8:1],,1>4[8:1],,
{8}5b-1[8:1],,5b-8[8:1],,5b-2[8:1],,5b,7h[8:2],
{8},,7<4[8:3],,,,,8h[8:2],
{8},,8>3[8:3],,,,,7h[8:2],
{8},,7>2[8:3],,,,,,
{8}4h[8:2],,,4,4,4,4,4,
{8}4h[8:2]/5,,2,,65,,4h[4:2]/3,,
{8},,7,,2/3,,6/5h[4:2],,
{8},,2-7[8:1],,4-1[8:1],,6-3[8:1],,
{8}8b-4[8:1],,7b>2[8:1],,6b-2[8:1],,5b-1[8:1],,
{8}4h[4:1],,2,,6/5,,2h[4:2]/3,,
{8},,1,,65,,3/4,2h[4:3],
{8},1,1,1,1,1<6[8:1],,3,
{8},4,4<7[8:1],,3,3,3,3,
{8}3h[8:2],,2,,65,,4h[4:2]/3,,
{8},,8,,1/2,,7/6h[4:2],,
{8},,4-8[8:1],,3<6[8:1],,2-5[8:1],,
{8}1b>4[8:1],,8b-3[8:1],,7b>2[8:1],,6b-2[8:1],,
{8}3h[4:1],,1,,6/5,,4h[4:2]/3,,
{8},,8,,1/2,,7,6<1[8:1]/5,
{8},2>5[8:1],2,,6<1[8:1],6,,3>8[8:1],
{8},7<4[8:1],7,,3>8[8:1],3,,,
{8},,6<1[8:1],,5-1[8:1],,4-7[8:1],,
{8}2>5[8:1],,1-5[8:1],,8>3[8:1],,7[8:1],,
{8}6<1[8:1],6b,,,3<6[8:1],3b,,,
{8}8>3[8:1],8b,,,5<8[8:1],5b,,4b,
{8},,,,,,,,
{8},,,,,,,,
{8}3b/6b,1b/8b,,,,,,,
{8},,,,,,,,
E
