&title=私は、わたしの事が好き。
&artist=HoneyWorks,かぐや(cv.夏吉ゆうこ)
&first=-0.218
&des_1=ID:1681
&des_2=ID:1681
&des_3=ID:1681
&des_4=ID:1681
&des_5=ID:1681
&lv_5=13+
&des_6=ID:1681
&des_7=ID:1681
&des=ID:1681
&inote_5=(193){4},,,,,C,
{2}8h[4:1]/2-4[8:1],
7h[4:1]/5-1[8:1],6h[4:1]/8-4[8:1],
5h[4:1]/3-1[8:1],{8}E6,E1,E7,E4,
B5,E3,B7,C,{2}6<5[2:1],
,1h[4:1]/7-5[8:1],
2h[4:1]/4-8[8:1],3h[4:1]/1-5[8:1],
4h[4:1]/6-8[8:1],{8}E4,E1,E3,E6,
B4,E7,{4}C,{8}2h[8:3],{16}E2,B2,B3,E4,,,{8}7h[8:3],
{16}E8,B7,B6,E6,,,{4}8-2[8:1]*<4[4:1],8,
{8}3,3,3,{24}A4,E4/E5,B3/B5,B2/B6,E7/E2,{12}A7/A1,{24},,{8}8x,8x,
7b/1b,7b/1b,,,{4}1-7[8:1]*>5[4:1],1,
{8}6,6,6,{24}A5,E6/E5,B6/B4,B7/B3,E3/E8,{12}A2/A8,{24},,{8}1x,1x,
2b/8b,2b/8b,,,{4}5-3[8:1]*<1[4:1],5,
{8}2,2,2,2<7>2[8:3],,2/4,5,6,
{16}E3,B3,B4,E5,E1,B8,B7,E7,{4}Cf,1b/2b,
8b/1b,{8}7b/8b,7xh[4:1],,5,4,2>6[8:3],
,,,,{4}8,8,
8,8,8>4[4:1],4<8[4:1],
{8}C,E3/A2,{4}A2/E3,1,1,
1,1,1<5[4:1],5>1[4:1],
{8}C,E7/A7,{4}E7/A7,8,8,
8,8,8>4[4:1],4<8[4:1],
{8}C,E3/A2,{4}E3/A2,1,1,
{8}1,7,1,5V31[4:1],,5/1<5[4:1],,E5,
C,B1/E2,E3/D3,E4/B4,{4}7-4[4:1],{8}7/4-1[4:1],2,
{4}1-5[4:1],{8}5-7[4:1],4,3,2,1-4[8:1]*-6[8:1],1,
{4}1,{8}5,5,2-5[4:1],4,2/5-8[4:1],7,
{4}8-4[4:1],4-2[4:1],{8}6,7,8-5[8:1]*-3[8:1],8,
{4}8,4h[4:1],5-7[8:1],5/8-4[8:1],
1/8,{8}2-4[8:1],2,{4}2/5-1[8:1],5/6-8[8:1],
6,2/1,8/7,{16}2x,3x,{8}4x,
{1}1>6q8[4:3],
{32}A1,D2,A2,D3,A3,D4,A4,D5,{4}A5,E4/B4/E7fh[1:1],B1/E2,
B4/E4,B1/E2,C,{8}2,2,
{4}1h[4:1],{8}2,4,{4}3-8[8:1]/5-8[8:1],5/3,
2/7,7-3[8:1]/2-5[8:1],{2}2<7[8:1]/7<4[8:1],
{8}E3,C,{4}E7,1<5[4:1],5V31[4:1],
1V75[4:1],5>1[4:1],{8}1,8,8,8,
{16}8x,7x,6x,5x,4x,3x,2x,1x,{4}8x/4-7[8:1]*-1[8:1],4,
8-5[8:1]*-3[8:1],8,2-5[8:1]*-7[8:1],2,
6-3[8:1]*-1[8:1],6,2h[8:1]/8h[8:1],1h[8:1]/7h[8:1],
2h[8:1]/8h[8:1],1h[8:1]/7h[8:1],{16}8,1,8,1,8-3[8:1]*-5[8:1],1,8,1,
{1}8,
{24}2-7[8:1]/6-3[8:1],E7/E3,B7/B3,B8/B4,{12}E1/E5,2/6qq8[8:3],{24},,,,{8}1,1,2V48[4:1],2,
2,,,1/E6f,,,{4}7/1,
6/4,5/3pp1[8:3],{8}3/8,8,7-4[8:1],7,
7,2h[4:1],,3b,,,{4}2<7>2[2:1],
,2V46[4:1],{2}Cf,
{8}E7/B7,B1/E2,B5/E5,8h[8:3]/E3/B3,,,{4}C,
{8}E3/B2,B8/E8,B4/E5,1h[8:3]/E7/B6,,,C,{32}E5,B5,B6,E7,
{8}2,2,4,4-7V58[8:3]*-1V38[8:3],,,,,,,{4}5/3V51[4:1],
{8}8,8,7V51[4:1],7,
7,,,8/E4f,,,2/8,2,
3/5,5,{4}4/6qq8[8:3],{8}6/1,1,2-5[8:1],2,
2,7h[4:1],,6b,,,{4}7>2<7[2:1],
,7V53[4:1],{2}Cf,
{8}E3/B2,B8/E8,B4/E5,1h[8:3]/E7/B6,,,{4}C,
{8}E7/B7,B1/E2,B5/E5,8h[8:3]/E3/B3,,,,,7/5,
7-4[8:1]/5-1[8:1],,5v6-3[8:3]/7v6-1[8:3],,,,,,,5,
4,{4}2/3,2/3,
7/6,7/6,2/4,5/7,
1/3,{8}8/6,5,4/1,2,{4}3/5,
7/1,2/8,{2}6-2V84b[4:3],
{4}6b-4[4:1],,,2x-4v3V52-8v1V72b[4:5],
,,,,,,8bw4b[8:1],
8b,
{8}2,2,4,4/Cf,,6,5,4,
3-5b[8:1],3,{4}7-1b[8:1],7-3b[8:1]*-5b[8:1],7,
{8}4,5,6,6/Cf,,3,4,5qq5[8:3],
,,,,{4}E8f,2/3,
{8}6/7h[4:1],,,4/3,,2,1,8,
7/6,E6,E5,E4,{4}1,1,
1,1,1<5[4:1],5>1[4:1],
{8}C,E7/A7,{4}A7/E7,8,8,
8,8,8>4[4:1],4<8[4:1],
{8}C,E3/A2,{4}E3/A2,1,1,
1,1,1<5[4:1],5>1[4:1],
{8}C,E7/A7,{4}E7/A7,8,8,
{8}8,2,8,4<8[4:1],,4/8>4[4:1],,,C,
B8/E8,E7/D7,E6/B5,{4}2-5[4:1],{8}2/5-8[4:1],7,
{4}8-4[4:1],4-2[4:1],{8}6,7,8-5[8:1]*-3[8:1],8,
{4}8,{8}4,4,{4}7-4[4:1],{8}7/4-1[4:1],2,
{4}1-5[4:1],5-7[4:1],{8}3,2,1-4[8:1]*-6[8:1],1,
{4}1,5h[4:1],4-2[8:1],4/1-5[8:1],
8/1,{8}7-5[8:1],7,{4}7/4-8[8:1],4/3-1[8:1],
3,7/8,1/2,{16}7x,6x,{8}5x,
{2}8<3p1[4:3],2p1[4:1],
{32},D1,A8,D8,A7,D7,A6,D6,{4}A5,E6/B5/E3fh[1:1],B8/E8,
B5/E6,B8/E8,C,{8}7,7,
{4}8h[4:1],{8}7,5,{4}6-1[8:1]/4-1[8:1],4/6,
7/2,2-6[8:1]/7-4[8:1],{2}7>2[8:1]/2>5[8:1],
{8}E7,C,{4}E3,8>4[4:1],4V68[4:1],
8V24[4:1],4<8[4:1],{8}8,1,1,1,
{16}1x,2x,3x,4x,5x,6x,7x,8x,{4}1x/5-2[8:1]*-8[8:1],5,
1-4[8:1]*-6[8:1],1,7-4[8:1]*-2[8:1],7,
3-6[8:1]*-8[8:1],3,7h[8:1]/1h[8:1],8h[8:1]/2h[8:1],
7h[8:1]/1h[8:1],8h[8:1]/2h[8:1],{16}1,8,1,8,1-6[8:1]*-4[8:1],8,1,8,
{1}1,
{32}8bh[8:1]/A7,D7,A6,D6,A5,D5,A4,D4,{4}1bh[8:1]/A3,{8}8/2,8,3/7V51[4:1],7,
7,,,8/E4f,,,{4}2/8,
3/5,4/6qq8[8:3],{8}6/1,1,2-5[8:1],2,
2,7h[4:1],,6b,,,{4}7>2<7[2:1],
,7V53[4:1],{2}Cf,
{8}E3/B2,B8/E8,B4/E5,1h[8:3]/E7/B6,,,{4}C,
{8}E7/B7,B1/E2,B5/E5,8h[8:3]/E3/B3,,,C,{32}E5,B4,B3,E3,
{8}7,7,5,5-2V41[8:3]*-8V61[8:3],,,,,,,{4}4/6V48[4:1],
{8}1,1,2V48[4:1],2,
2,,,1/E6f,,,7/1,7,
6/4,4,{4}5/3pp1[8:3],{8}3/8,8,7-4[8:1],7,
7,2h[4:1],,3b,,,{4}2<7>2[2:1],
,2V46[4:1],{2}Cf,
{8}E7/B7,B1/E2,B5/E5,8h[8:3]/E3/B3,,,{4}C,
{8}E3/B2,B8/E8,B4/E5,1h[8:3]/E7/B6,,,,,2/4,
2-5[8:1]/4-8[8:1],,4v3-6[8:3]/2v3-8[8:3],,,,,,,4,
5,{4}7/6,7/6,
2/3,2/3,7/5,4/2,
8/6,{8}1/3,4,5/8,7,{4}6/4,
2/8,7/1,{2}3-7V15[4:3],
{4}3b-5b[4:1],{8},,,,7-4[8:1],7,
3-8[8:1],3,5-8[8:1],5,1-4[8:1],1,7-2[8:1],7,
3b,3b-6[8:1]*-8[8:1],,3b,,,2-5[8:1],2,
6-1[8:1],6,4-1[8:1],4,8-5[8:1],8,2-7[8:1],2,
6b,6bh[8:3],,,{2}5p4>2[8:3],
{6},,7,1h[4:1],{12},{4}5,
{8}4b/2b,4b-7[8:1]/2b-6[8:1],,2b/4b,,,8-4[8:1],1-5[8:1],
8-6[8:1],1-3[8:1],8,1,7,7,5,5,
3,3-6[8:1]*-8[8:1],,3b,,1-5[8:1],8-4[8:1],1-3[8:1],
8-6[8:1],1,8,2,2h[8:1],4h[8:1],{4}6-3[8:1]*-1[8:1],
{2}6b,{8}7h[4:1]/5h[4:1],,,6h[4:1]/4h[4:1],
,,{4}5h[4:1]/3h[4:1],{8},4h[4:1]/2h[4:1],,,{4}3-6[8:1]*-8[8:1],
3,{8}E8,E2,E6,E4,
E7,E3,E6/B5,E2/B1,E8/B7,E3/B3,E5/B4,B1/E1,
E7h[2:1],Cfh[8:3],{4}E3h[4:1],{8},,7h[8:1],5h[8:1],
4h[8:1],2h[8:3],3,3,3h[8:1],1h[8:1],8h[8:1],6h[8:3],
7,7,{4}7s3[4:1],{2}7/3V17V53-7[2:1],
{4}1V73[4:1],{8}1,E5f,,4,5,6p4[4:1],
,6,,,2-7[8:1],2,6-3[8:1],6,
1V37[4:1],1,,E5f,,6<3[4:1],,3>6[4:1],
{16},,,,,,,,1bx,1bx,1bx,1bx,1bx,1bx,1bx,1bx,
1bx,1bx,{8}1bx,,7bx-3[8:3]/2bx-6[8:3],,,,,,,,,2,
2,{16}6,5,4,3,
{8}1h[8:1],8h[8:1],5h[8:1],6,,6/5,3/1,3h[8:1],
1h[8:1],8h[8:1],6h[8:1],7,Cf,{16},,,,3/6h[8:1],4,
{8}5,{16}2/7h[8:1],3,{8}4,8h[8:3]/Cf,{16},,1,2,3,4,{8}5h[4:1]/Cf,
,6h[8:1],,1/6,7,7,{16}3,4,5,6,
{8}8h[8:1],1h[8:1],4h[8:1],3,,3/4,6/8,6h[8:1],
8h[8:1],1h[8:1],3h[8:1],2,6/4,6/4,5/3,5v7[8:1]/3v1[8:1],
,3/5,,8b/2,{16},,8,7,6,5,{8}4/Cf,
{16},,,,,,,B1,B2,B8,A2,C,{4}E3,
{8}B5/E4,{32}B4,B3,B2,B1,{4}E1,{2}8-5[8:1]/4v1[8:1],
,6-2[16:1]/7-1[16:1],
{32}A5/A6,E5/E7,B4/B7,B3/B8,E3/E1,A2/A1,,,{4}C,{2}6<2[4:1]/2>6[4:1],
{4},,2,2bxqq6[8:3],
{8},,,,Cf,7,7,4,
4,5,E3,E7,{4}2/C,7/E6,
1/E4,8/E5,4/E1,7bxq4<7v5<6v4-7-5<6-4<7>3qq4[8:17],
{8},,,,,,,,,,,,,,,,E7,
Cf,,,,,,,,,,,{4}3h[8:1]/4q8[8:1],
3h[8:1],
3h[8:1]/4q1[8:1],3h[8:1],5/4V28[4:1],8V64[4:1],
4>8[4:1],8,{8}6,6,3,3,
8,8V26[8:3],,8,,,{4}3h[4:1],
5h[4:1],8h[4:1],{2}7b,
{8}7,7,4,4h[8:3],,,,,2,
2,5,{16}2/5,3,{2}4-7[8:1]*-1[8:1],
{8}8,8,1,1/8v5-7[4:1],,E4,E3,E2,
,,{4}8/2,{8}4/6,4,7/3V15[4:1],3,
3,,,6/E8f,,,6/4,3,
7/2,8,{4}1/2qq4[8:3],{8}2/5,5,6-1[8:1],6,
6,3h[4:1],,2b,,,{4}7>2<7[2:1],
,7V53[4:1],{2}Cf,
{8}E7/B6,B4/E4,B8/E1,5h[8:3]/E3/B2,,,{4}C,
{8}E3/B3,B5/E6,B1/E1,4h[8:3]/E7/B7,,,C,{32}E5,B5,B6,E7,
{8}3,3,1,1-6V85[8:3]*-4V25[8:3],,,,,,,,,{4}7/6,
2/3,
8/6,3/1,7/5,4/2,
E1,{8}3,3,6,6,8,8,
{4}5h[4:1],2h[4:1],{2}8h[2:1],
1-7[8:1]*>5[4:1],{4}6-1[8:1]*-3[8:1],6,
{8}2,2,8,8/1qq3[8:3],,4/1,4,5,
5,6/4,,,{4}6b-3[8:1]*-1[8:1],6b,
{8}2,2,{4}A5,A6,A5,
A6,A5,A6,A5,
A6,A5,A6,A5,
A6,{8}A5,{16}A6,E6,B5,B4,E4,A3,{4}1b,
1b,{8}1b,4b-1[8:7],,,,,,,,,{2}3bv2-4-1-3v4-2-5-3[2:5],
{8},,,,,,,,,,,,,,,,,,,8b/1b,
,7,7,2,
2,4,{4}4-6[8:1]*>8[4:1],,7-4V68-3[2:1],
{8}1,1-3[8:1],1,1,,5,5,4,
4,{16}7,6,5,1,2,3,{4}4/6,2/8,
{8}1/7,2,5/3,4v5V31[4:3],,8,8,7,
7,6,{4}6,{16}E5,B5,B6,B7,{4}E8f/1>6p8[8:7],
{8},,,,,,,C,
E
