&title=笑えない
&artist=月島春果 / PSYQUI
&first=0.1
&demo_seek=43
&lv_2=2
&des_2=-
&inote_2=
(138){4},,,,{1}5,
5,
4,
4,
{2}3,3,
2,2,
1,1,
{1}8/7,
{2}6,6,
5,5,
4,4,
{1}3/4,
2-7[4:3],
,6-3[4:3],
{2},,2,
2,
1,1,
8,8,
{1}7/8,
{2}6,6,
5,5,
4,4,
{1}3/4,
{2}2b,2,
{4}1,1,{2}1,
8,8,
{4}7,7,{2}7,
6,6,
{4}5,5,{2}5,
4,4,
{4}3,3,{2}3,
B1,B2,
{1}B3/B4,
{2}B8,B7,
{1}B6/B5,
1x>4[4:3],
,5<8[4:3],
{2},,1,
2,
3,4/5,
{1}6h[8:7]/3h[8:7],
{2},,7b,
7,
{4}8,8,{2}8,
1,1,
{4}2,2,{2}2,
3,3,
{4}4,4,{2}4,
5,5,
{4}6,6,{2}6,
{1}6x/5x,
4x/3x,
2x/1x,
8x/7x,
{4}B5,B6,{2}B7/B8,
{4}B4,B3,{2}B2/B1,
{4}B5,B6,{2}B7/B8,
{4}B4,B3,{2}B2/B1,
{4}B8,B7,B6,B5,
B4,B3,{2}B2,
{4}B1,B2,B3,B4,
B5,B6,{2}B7,
{1}Cf,
{2},8xq1[4:5],
,,,,{1}Cfh[1:3],
{2},,,,,,8bx,
8,
{4}7,7,{2}6/5,
4,4,
{4}3,3,{2}2/1,
8,8,
7,7,
6,6,
{4}5/4,4/5,{2}5/4,
3,3,
2,2,
1,1,
{4}8/1,1/8,{2}8/1,
{1}7h[4:7]/2h[4:7],
E
&lv_3=7
&des_3=-
&inote_3=
(138){4},,,,4,
4,{2}4/3,
{4}5,5,{2}5/6,
{4}7,7,{2}7/8,
{4}1,1,{2}1/2,
{4}2,3,{2}4,
{4}5,6,{2}7,
{4}7,6,{2}5,
{4}4,3,{2}2,
{4}3,2,{2}1,
{4}8,7,{2}6,
{4}6,7,{2}8,
{4}1,2,{2}3,
{4}4x/5x,5,{2}5,
{4}6,6,{2}6,
{4}7,7,8,8,
1,1,{2}1/2,
{4}5x/4x,4,{2}4,
{4}3,3,{2}3,
{4}2,2,1,1,
8,8,{2}8/7,
{4}6,6,5,5,
4,4,{2}3/4,
2x/1x,8x/7x,
{1}5x-2[2:1]/6x-1[2:1],
{4}8b,8,7,7,
6,6,{2}5/6,
{4}4,4,3,3,
2,2,{2}1/2,
{4}8,7,6,5,
4,3,{2}2,
{4}1,2,3,4,
5,6,{2}7,
{4}8,8,{2}8,
{4}7,7,{2}7,
{4}6,6,{2}6,
{4}5,5,{2}5/4,
{1}Ch[4:7],
{4},,,,8,
8,{2}8,
{4}1,1,{2}1,
{4}2,2,3,3,
4,4,{2}5/4,
{16}6x/7x,,,,,,,8x/7x,,,,,,,{8}8bx/1bx,
,,,,,,,,{4}1,
1,2,2,
3,3,{2}4/3,
{4}5,5,6,6,
7,7,{2}8/7,
{4}1,1,2,2,
3,3,{2}4/3,
{4}5,5,4,4,
5/3,5/3,4,4,
{1}3x-8[2:1],
7x-4[2:1],
1x>4[2:1],
5x<8[2:1],
{4},,B8,B7,
B6,B5,{2}B4/B3,
{4}B1,B2,B3,B4,
{1}B5/B6,
{4}B8,B7,B6,B5,
{1}B3/B4,
{4}B1,B2,B3,B4,
B5,B6,B7,B8,
{1}Cf,
{4},,B8/B1,B7/B2,
B6/B3,B5/B4,,,{1}5x/4x,
Cfh[1:3],
{4},,,,,,,,,,,,8x,
8x,{2}8x,
{4}7,7,{2}7,
{4}6,6,5,5,
4,4,{2}3b,
{4}2,2,1,1,
8,8,{2}7/8,
{4}6,6,5,5,
4,4,{2}4/3,
{4}1x,2,3,4,
5,6,{2}7,
{4}8x,7,6,5,
4,3,{2}2,
{1}8-5[2:1]/1-4[2:1],
{4},,,5b/4b,
E
&lv_4=10+
&des_4=Lv Cat
&inote_4=
(138){4},,,,{2}5,
4,
5,4,
6/3,7/2,
{8}8/1,,,,,B3/B7,{4}B3/B7,
{8}7,6,{4}5,{8}1,2,{4}3,
{8}8,7,{4}6,{8}3,4,{4}5,
{2}7<5[8:1],2>4[8:1],
8<6[8:1],1>3[8:1],
{8}5,6,{4}7,{8}3,2,{4}1,
{8}6,7,{4}8,{8}4,3,{4}2,
,6<8[8:1]/3>1[8:1],,,{2}8-6[8:1]/1-3[8:1],
5-8[8:1]/4-1[8:1],
{4}1x,2,{8}3,4,{4}2,
{8}6,5,{4}7,8/1,7/2,
5/6,4/3,{8}7,8,{4}6,
{8}2,1,{4}3,5x/4x,B6/B3,
6xh[2:1]/2xV85[4:1],,,7/4,
3h[2:1]/7V14[4:1],,,2/5,
4h[8:1]/3h[8:1],6h[8:1]/5h[8:1],4h[8:1]/3h[8:1],6h[8:1]/5h[8:1],
7q4[8:3]/2p5[8:3],,,6x/3x,
{2}1>4[8:1]/4<7[8:1],{4}8,8,
{2}7<4[8:1]/4>1[8:1],{4}8,8,
{2}7xh[4:1]/1xh[4:1],8xh[4:1]/2xh[4:1],
{1}6xpp4b[8:3]/3xqq5b[8:3],
{8}3b/4b,5/2,{4}6/1,{8}1,2,{4}8/3,
{8}6/5,4/7,{4}3/8,{8}8,7,{4}1/6,
2-5[8:1],8-4[8:1],1,2,
3/7,5/1,6b/2b,8b/4b,
{8}6/5,4/7,{4}3/8,{8}8,7,{4}1/6,
{8}3/4,5/2,{4}6/1,{8}1,2,{4}8/3,
{2}7<4[8:1],1>4[8:1],
{4}8,6,4w8b[8:1],Cf,
{8}6x/2x,7,8/1,2,{2}1v8[8:1],
{8}7,6,5/4,3,{2}4/5v7[8:1],
{8}2,1,8,7,{2}6>3[8:1],
{8}2,3,4,5,{4}6b/7b,3b/4b,
{1}5xh[4:3]/2xh[2:1],
{8}3,3,4,4,{2}3>8[8:1],
{4}7x,5/3,8/1,3/7,
5/4,6/2,8/3,7/1,
{2}7v4[8:1]/1v4[8:1],6-2[8:1],
3-5[8:1],7-1b[8:1]*v2b[8:1],
{16}E4/E6/E5,,,,,,,E8/E1/E2,,,,,,,{8}Cf/E7/E3,
,,,,1-4[8:1]/8-5[8:1],1/8,,,7bx/2bx,
3,6x/4x,8,1,2,5x/3x,7,
6/5,6/5,7x/4x,7/4,{2}1xh[4:1]/2xh[4:1],
3-1[8:1]/8-4[8:1],{8}8,1,2,3,
4/3,4/3,{4}5/2,{2}8b<4[8:1]/7b<4[8:1],
{8}3,2,8/1,7,2,3,6/4,7,
5/8,7,{4}6/4,{2}8xh[4:1]/2xh[4:1],
6-8[8:1]/1-5[8:1],3-1[8:1]/8-4[8:1],
{4}3xh[4:1],4xh[4:1],5xh[4:1],6b<1b[8:1],
{2}4b>1b[8:1],8b-5b[8:1],
{1}Ch[2:1]/2bq5b[2:1],
{2}7b>2b[8:1],3b<6b[8:1],
{4}C/7bp4b[2:1],,,Ch[4:3],
{8},,,,8x,7,2,3,
5/6,6/5,{4}7/4,{8}1/2,2/1,{4}3/8,
1-5[8:1],6-4[8:1],{2}3qq8[8:3],
{4}7,6,5x/3x,4x/6x,
{8}6,7,8,1,2,3,4/5,5/4,
2,1,{4}3/8,{8}7,8,{4}6/1,
{2}7<4[8:1]/1>4[8:1],8-5[8:1]/2-5[8:1],
{4}7-2[8:1],3-6[8:1],8-5[8:1],4-1[8:1],
{1}8bxV25-7-4b[4:3],
{2},1xV74-2-5[4:3],
{4},,,6/5,
{8},7,8,1,2,3,4,5,
{2}6h[4:1],5h[4:1],
4h[4:1],3h[4:1],
{1}3p6[8:5],
{4}7x,8x,1bw5b[8:1],Cf,
{8}7x/3x,2,1,8/7,6,5,4,3,
{2}2/1<6[8:1],5-7[8:1]/4-2[8:1],
8-5[8:1]/1-4[8:1],7-5b[8:1]/2-4b[8:1],
{8}7/2,6/3,{4}5/4,5b-1[8:1]/4b-8[8:1],Cf,
{8}7x,8,7,6/1,2,1,2,3/8,
6,5,7,6/5,3,4,2,3/4,
{2}6h[4:1]/2h[4:1],{8}7/3,8,7/3,4,
6x/2x,6x/2x,{4}6x/2x,{2}1bw5[8:1],
{8}7x,6,5,7/8,2,3,4,1/2,
{4}7-4[8:1],3-8[8:1],7,1/6,
{8}7,6,5/4,5/4,2,3,4/5,5/4,
{2}6bpp6[4:1],2bpp2[4:1],
{1}8bx<1[4:5],
{8},,,,,8x,{4}1bx,
E
&lv_5=12+
&des_5=Lv Cat
&inote_5=
(138){4},,,,{2}4h[2:1],
{4}5,6h[4:1],
5h[4:1],7h[4:1],3h[4:1],4h[4:1],
{2}2h[2:1],{4}4,5h[2:1],
{8}4h[4:1],,,,,E7/E3,{4}E7/E3,
{2}4/2>4[8:1],5/7<5[8:1],
5/3>1[8:1],5/7>1[8:1],
2h[4:3]/1<7[8:1],5<7[8:1],
7h[4:3]/8>2[8:1],4>2[8:1],
4/2-4[8:1],4/6-4[8:1],
4/2-8[8:1],4/6-8[8:1],
{1}8h[4:3]/1>8[2:1],
{2}2-6[8:1],7-3b[8:1],
{4}4x/3xh[4:1],{8}2,1h[8:3],,4,{4}4,
{16}8,5,,5,{8}6,4/3,{2}5/2-5[8:1],
{4}5x/6xh[4:1],{8}7,8h[8:3],,5,{4}5,
{16}1,4,,4,{8}3,5/6,4/7,E1/E5,{4}E5/E1,
7/2-5[8:1],8,{8}6/2-5[8:1],7,{4}8,
5/2-5[8:1],7,{8}5/2-5[8:1],6,{4}7,
2-5[8:1],7-1[8:1],2-5[8:1],7-1[8:1],
2q5[8:3],8b,8b,7x/1x,
4/7-4[8:1],2,{8}3/7-4[8:1],2,{4}1,
2/7-4[8:1],8,{8}1/7-4[8:1],2,{4}3,
{8}4xh[4:1]/3xh[4:1],,,5x/6x,{4}7xh[8:1]/4xh[8:1],8x/1x,
{8}1/2,3/4,5/6,8/7,{4}6-4[8:1]/1-3[8:1],6b/1b,
{8}1b-4[8:1],8,{4}7/1,{8}4/6-1[8:1],3,{4}2/6,
{8}8/1>4[8:1],7,{4}6/1,{8}4/5<8[8:1],3,{4}2/5,
1pp1[16:3],1,{8}5x,6,7x/1x,8,
1/2,1/2,{4}8/3,6b-2b[8:1]/5b-1b[8:1],Cf,
{8}3bx-8[8:1],4,{4}5/3,{8}8/6-3[8:1],1,{4}2/6,
{8}4/3>8[8:1],5,{4}6/3,{8}8/7<4[8:1],1,{4}2/7,
3>7[4:1],7<3[4:1],3p7[4:1],7p3[4:1],
3x,8x,1xw5b[8:1],1b,
{8}7x/3x,6,5/4,{16}3,4,,4,{8}5,5/3,2,
{16}3,6,,6,{8}3,7/4,{2}6v3[8:1]/5v3[8:1],
{8}2x,3,4/5,{16}6,5,,5,{8}4,4/6,7,
{16}6,3,,3,{8}6,2/5,{2}4b/3b-6[8:1],
{1}8bxh[8:11],
{8}B1,B2,B3,B4,{4}8x-4b[8:1],C,
5xh[8:1]/3xh[8:1],4h[8:1]/2h[8:1],{16}3,1,,1,{8}8,7/2,
{4}4h[8:1]/6h[8:1],5h[8:1]/7h[8:1],{16}6,8,,8,{8}1,2/7,
{4}8-5b[8:1]/1-4b[8:1],A8/A1,{16}3x,5,,5,{8}2,4/3,
{16}7,1,,1,{8}6,8/7,{2}1p4[8:1]/6-1[8:1],
{16}B1/B2/D3/D1/E2,,,,,,,B8/B7/D7/D1/E8,,,,,,,{8}5b/4bv5[8:1],
,,,,4v1[8:1]/6v1[8:1],6/4,,,8bx/2bx,
1,3/8,{16}2,1,2-5[8:1],1,{8}2,{4}8x,
{8}3/4,5/6,8/7,{16}7,8,7-4[8:1],8,{8}7,{4}1x,
1-5[8:1]/5-8[8:1],A5/A1,{8}4x/7x,3,6x/2x,7,
2x/1x,7x/8x,{4}4x/5x,3b-8b[8:1]/6b-1b[8:1],6b/3b,
{8}7bx,6,4/7,{16}5,6,5-2[8:1],6,{8}5,{4}7x,
{8}4/3,2/1,7/8,{16}8,7,8-3[8:1],7,{8}8,{4}6x,
{8}6x-4[8:1],6x-8[8:1],,,2x<8[8:1],2x>4[8:1],,,{4}7bxh[4:1],
1bxh[4:1],5bxh[4:1],3bxw7[8:1],
Cf,1bxw5b[8:1],Cf,7bxw3[8:1],
{2}Cf,Cfh[2:1],
8b-5[8:1],4b-1[8:1],
{4}8bz4b[2:1],,,Cfh[4:3],
{8},,,,8,7,6,5/4,
3/6-1[8:1],2,3,4,1/5-2[8:1],8,7,6,
8<5[8:1],1,2,3,4>1[8:1],5,6,7,
8,2,{4}1/8,{2}7v2[8:1]/2v7[8:1],
{8}1>4[8:1],5,6,7,8<5[8:1],1,2,3,
4,4,{4}6h[8:1]/2h[8:1],{8}1,1,{4}3h[8:1]/7h[8:1],
1q5[4:1],5q1[4:1],1>5[4:1],5<1[4:1],
1b>5[4:1],5b<1[4:1],1b,7xh[4:5],
{1}8bxq2>6[4:3],
{8},,,2h[8:9],{2}1p7<3b[4:3],
{4},,,1x/8x,
{8},5/4,6/3,7/2,8/1,8/1,7/2,6/3,
{1}5bxh[4:11]/4bxh[4:9],
{8},,,,,,,,,,,,,,,,3x/7x,
5,2x/6x,4,{4}1x-4b[8:1]/7x-4b[8:1],Cf,
{8}1bx/7bx,8,6/1,{16}7,8,7-4[8:1],8,{8}7,{4}1x,
{8}6/5,4/3,1/2,{16}2,1,2-5[8:1],1,{8}2,{4}8x,
8-4[8:1]/4-1[8:1],A4/A8,1-5[8:1]/5-8[8:1],A5/A1,
{8}7x/8x,2x/1x,{4}5x/4x,6b-1b[8:1]/3b-8b[8:1],3b/6b,
{8}7x/2x-5[8:1],1,2/7-4[8:1],8,7/2-8[8:1],1,2/7,6,
3/7-5[8:1],2,7/1-5[8:1],8,{2}1w5[8:1],
{4}8qq8[4:1],4qq4b[4:1],A8f,A4f,
{8}2x/6x-8[8:1],5,6/2-4[8:1],1,{4}2-6b[8:1]/8-4b[8:1],Cf,
{8}8x/2x,3,7/4,{16}6,5,6-1[8:1],5,{8}6,{4}3,
{8}1x/7x,6,2/5,{16}3,4,3-8[8:1],4,{8}3,{4}6,
{8}7-4-7[4:1],4,,,3-8-3[4:1],8,,,{4}7b-3[8:1],
1b-5[8:1],8bw4b[8:1],8b,
{8}2xh[4:1]/6xh[4:1],,,3,4h[4:1]/5h[4:1],,,3qq4[8:3]/6pp5[8:3],
{4},,{16},,{64},E6,E4,B6,B3,B7,B2,E8,{4}E2f,
E
