&title=Midnight City Warfare
&artist=sky_delta
&first=0.775
&des=Ebenholz
&lv_5=14
&inote_5=(180){4}5/3h[8:3],{8},6h[8:3],{4},4h[8:3],
{8},8<5[8:3],{4},,,{8}4/3h[8:3],
{4},{8}5h[8:3],{4},2h[8:3],
{8},7<4[8:3],{4},{2}1,
{8}2,3,6,6,4h[4:1],7h[4:1],{4},{8}5h[4:1],
6h[4:1],{4},{8}4,4,7,6,
3h[4:1],5h[4:1],{4},{8}2h[4:1],4,3-7[8:1],3,
,1s5[4:1],{4}1,8xh[4:1],{32}B8,C,{16}B4,{8},2h[8:1]/5h[8:3],
{4},{8}3h[8:3],{4}5,{8}4h[8:3],3,
,3,2/5,{16}4,3,{4}5,6/4,
{8}7h[8:1]/5h[8:3],{4},{8}6h[8:3],{4}5,{8}4h[8:3],6,
,6,7/4,{16}5,6,{4}4,3/5,
{8}2,2,5,6,3h[4:1],7h[4:1],,4h[4:1],
{4}6h[4:1],{8}5,5,6,6,4,3,
2h[4:1],4h[4:1],,1h[4:1],{4}5h[4:1],{8}1-5[8:1],1,
,7s3[4:1],{4}7,{2}4xh[4:1],
{4}3h[4:1]/5h[8:1],{8}4,2h[4:1],3,4,{4}5<8[16:3],
{8},1>4[16:3],{4},{8},7,4h[8:1],6,
{4}3h[4:1],{8}4,2h[4:1],,4,{4}1h[4:1],
{8}5,3h[4:1]/7h[4:1],{4},7-4[8:1]/3v8[8:1],7/3,
6h[4:1]/2h[8:1],{8}3,3,6,7,4h[4:1],8h[4:1],
,5h[4:1],{4}6h[4:1],{8}4,4,7,7,
8-4[8:1],1,8,2-6[8:1],1,2,7<4[8:1],8,
7,2v5[8:1],1,2,6,7,{4}8,
{8}4h[4:1],6,6,3h[4:1],4,4,{4}2,
{8}5h[4:1],3,3,6h[4:1],4,4,{4}7,
{8}5h[4:1],7,7,3h[4:1],5,5,{4}2,
{8}4h[4:1],3,3,6h[4:1],4,4,{4}7,
5/6h[4:1],{8}4,5,{4}3h[4:1],4,
4/2h[4:1],{8}5,3,4,6h[4:1],,5,
{4}7h[8:1]/4h[8:1],6h[8:1]/3h[8:1],{16}2,4,2,4,2-5V38[2:1],4,2,4,
{2}2,{4}5-1[8:1],5x/Cf,
7bh[8:1]/3bh[8:1],{8}5/6,7,7,2,3,7/4,
{16}6,5,6,5,{8}6,3,{16}2,4,2-5[8:1],4,{8}2,5,
{4}6h[8:1],{8}7/5,7/5,{16}8-4[8:1],{8},{16}4,{8},3,
5/2x-8[8:1],5,5/2x-4[8:1],5,5/2x-6[8:1],5,{4}6/2x,
7bh[8:1]/4bh[8:1],{8}6/5,4,4,6,{16}3,3,5,5,
2,3,4,5,8,7,6,5,{8}4/2,1,2/8,7/3,
{4}4h[8:1]/6h[8:1],{8}4,4/7x-5[8:1],4,4/7x-3[8:1],4,3/7x,
{16}2xh[16:3],{8},{16}4xh[16:3],{8},6xh[4:1],,8,{4}7x-4[8:1]/2x-5[8:1],
7b/2b,{8}6,{16}4,7,{8}5,{16}6,6,{8}1-3[8:1],{16}5,5,
{8}1-5[8:1],6h[8:1],1,6h[8:1],,{16}4,4,{8}7<5[8:1],{16}3,3,
{8}7-3[8:1],1h[8:1],7,1h[8:1],,{16}4,4,{8}1>3[8:1],{16}5,5,
{8}1,6,7h[8:1],5,3h[8:1],5,6h[8:1],5,
{1}4x>5[4:5],
,{8}8/4,
8/4,7/3,2/6,{16}1,5,1,5,1,5,1,5,
{4}1,2>5[8:1]/6<1[8:1],2/6,B8/B6/B4/B2/Cf,
1/8-4[12:1],{16}8bx/2b-5[12:1],{8},{16}6-1[12:1],{8},E3/B2,{16},E4/B4,{8},{4}8/2-6[12:1],
{12}2bx/7b-4[12:1],,3-8[12:1],{8},B5/E6,{16},B7/E7,{8},{4}2/5-1[12:1],
{16}5bx/3b-8[12:1],{8},{16}7-4[12:1],{8},B1/E2,{16},B3/E4,{8},2/5x,
2,2/6x,2,2/4x,2,{4}2/7x-3[8:1],
7b/3,{8}2,{16}4,4,{8}3,5,{16}4,4,{8}6,
{4}7h[8:1]/5h[8:1],{8}7,{16}5,5,{8}6,4,{16}5,5,{8}3,
{4}2/4,{16}1,3,1,4,1,5,1,6,1,7,1,8,
2,3,4,5,7,6,5,4,B2/E2,E6/B6,E4/B4,E8/B8,{4}Cf,
{8}5bx<4-7-2-5[8:25],{4},{8}4,{4},3,
{8},2,{4},,,{8}7,
{4},{8}6,{4},5,
{8}6x,{4},{8}7x,{4},{16}E5,B4,B3,E3,
{4}6h[4:1],{8}4,{16}5,3,{8},2,2h[4:1],3,
{16}4,{8},{16}5/3,{8},6/4,,7-4[8:1],7,3,
{16}2-5[8:1],{8},{16}6,{8},7-2[8:1],{16},4,{8},{4}3,
{8}1-5[8:1],{4},{8}7-3[8:1],{4},5w1[8:1],
5b/Cf,{8}7<4[8:1],{16}4x,4x,{8}7/2-6[8:1],1,2,7,
8-4[8:1],4,8<6[8:1],3,{16}8,4,3,2,{8}1,7/8,
{4}6/1,{8}2>5[8:1],{16}5x,5x,{8}2/6-1[8:1],7,6,3,
{16}4h[16:3],{8},{16}8h[16:3],{8},2h[16:3],{16},6,{8},{16}3,5,6,7,
{4}8-2[8:1],{8}8/4,{16}5x,5x,{8}4>1[8:1],1-5[8:1],4/7,5,
{16}6h[16:3],{8},{16}4h[16:3],{8},7-3[8:1],,3/7,2,1,
5/2,{16}3,4,{8}2,2,7/4,{16}6,5,{8}7,8,
1<6[8:1],2,3,4>1[8:1],5,6,{4}7-3[8:1],
7/8,{16}2,4,2-5[8:1],4,{8}2,5,{16}6x,7,8,1,
2,3,4,5,{8}6x/2x,8x/4x,{16}7,5,{8}6,{16}2,4,{8}3,
{4}4/8,{16}7,5,7-4[8:1],5,{8}7,4,{16}3x,2,1,8,
7,6,5,4,{8}3x/7x,1x/5x,{16}3,4,{8}2,{16}6,5,{8}7,
{4}8-4[8:1],8,2s6[4:1],{8}2,6,
{4}7-3[8:1],7,1s5[4:1],{8}1,5,
6x,6,6/4x,6,6/2x,5,5/3x,5,
{1}5V73-1[8:5]/1xs5[8:5],
{4}6b<1[8:1]/2b>5[8:1],2/6pp5[8:3],6x,{8}4,3,
{16}2-5[8:1],4,2,4,2,{8},{16}6,4,6,4,6,{4}3V15[4:1],
5V38[4:1],{8}7,7,{16}5h[16:3],{8},{16}1h[16:3],{8},4,
5x/2,2,2/7x,2,{4}2/6x,7v4[8:1]/1v4[8:1],
7b/1b,5<8[8:1]/3>8[8:1],5b/3b,{16}6,5,{8}7<4[8:1]/4>1[8:1],
,7b/4b,{4},{8}2/4,1,2/8,3/7,
{4}6h[8:1]/4h[8:1],{8}6,6/2-7[8:1],6,6/2-5[8:1],6V84-2[2:1],2,
{4},,,{48}E6,E7,E8,E1,E2,E3,{8}E4,
E
