&title=Extinguisher
&artist=lixound
&first=0.05
&des=Lethaeus
&lv_5=13+
&des_5=Lethaeus
&inote_5=
(181){4},,,,{1}2b-4-6-8-2-6[4:13]/5-7-1-3-5z1[4:13],
,,,{8}3h[2:1],
,,5,6h[8:3],,,5,
{4}4h[4:1],2<6[8:3],{8}E7,E6,E4,E3,
{4}1xh[4:1],{8}4,2,5,3-8[8:1],,3/5-1[8:1],
,5/2>6[8:1],,2/8-4[8:1],,8/2<7[8:1],,2,
5,5,4,4,6h[8:1],4,,3/5h[8:1],
3,4h[8:1]/2qq5[2:1],2,5,6,7,8xqq3[2:1],8x,
4,3,2,1,1,8x/2x-6[8:1],,2/7<4[8:1],
,7/8>3[8:1],,8/6qq7[4:1],,6,,,4,
4,5,5,3h[8:1],5,,6/4h[8:1],
6,5h[8:1]/7pp4[2:1],7,4,3,2,1xpp6[2:1],1x,
5,6,7,8,8,7x/1x,,2/4,
,,{4}8/6-1[8:1],{8}6/3-8[8:1],4,3/6,5,
,,{4}1-5[8:1]/8-4[8:1],{16}1V35V71-5[4:13]/8V64V28-4[4:13],B7/B8/B1/B2/B3/B4/B5/B6/Cf,{1},,,{4},,,{8},{4}5/4h[4:1],
3h[4:1],
2h[4:1],{8}6,4,7h[1:1],8,1,2,
3,4,{4}5h[4:1],{8},,4-2[8:1],6-8[8:1],
4,6-3[8:1],,6/1-5[8:1],,1/7<3b[4:1],{16},,A7,A6,
A5,A4,A3,2x,1x,8x,7x,6x,{8}3/5h[4:1],3,3,2/4h[4:1],
2,2,3/1h[8:1],E8/B7/B8/A8/A7,6/4h[4:1],6,6,7/5h[4:1],
7,7,6/8h[8:1],E2/B2/B1/A1/A2,3/5h[4:1],3,3,6/4h[4:1],
6,6,5/3,2,4/6,7h[8:1],2,1/3h[4:1],
1,1,6h[4:1]/8-3[8:1],8,{4}8x-5[8:1],8x>3[8:1],
8x<5[8:1],8x,{8}3/4,2,6/5,7,
3/4h[8:1],E2/E1/B1,6/5h[8:1],E8/B8/E1,{16}2,1,3,8,4,7,3,6,
2,5,1,4,{24}8,7,6,5,4,3,{2}2bz6b[4:1]/6b-2[4:1],
{16},,B3,B5,B6,B4,,,{4}3/8-4-6[4:1],8/2-4[8:1],
{8}2,8-2[8:1],{4}2-6[8:1],4qq5[4:1],4,
{8},6-2-8[4:1],{4}2-4[8:1],,6/1,
{8}8-6[8:1],6-2[8:1],8,5h[8:1],,1>3[8:1],7-3[8:1],1-5[8:1],
7<5[8:1],1,{4}7,6/1-5-3[4:1],1/7-5[8:1],
{8}7,1-7[8:1],{4}7-3[8:1],5pp4[4:1],5,
{8},3-7-1[4:1],{4}7-5[8:1],{8},,2-5[8:1],8-4[8:1],
2,8>3[8:1],,8<5[8:1],,8-6[8:1]*-2[8:1],,8w4[8:1],
,8,,8bh[8:15],{4}2b>5[8:1],2b,
6b-2[8:1],6b,1b<6[8:1],1b,
1b>4[8:1],1b,2bh[4:7]/7b<4[8:1],7b,
3b-8[8:1],3b,1b<6[8:1],1b,
1b-5[8:1],1b,8-5[8:1]/7-4[8:1],8/7,
1-4[8:1]/2-5[8:1],1/2,2>4[8:1]/7<5[8:1],2/7,
1-5[8:1]/8-4[8:1],1/8,{16}6h[8:1]/2h[8:1],,,4h[8:1]/7h[8:1],,,{8}1h[8:1]/5h[8:1],
,3/6h[8:1],{24}1,8,7,6,5,4,{16}8h[8:1]/3h[8:1],,,2h[8:1]/6h[8:1],,,{8}4/1-5b[8:1],
7-4[8:1],1-3b[8:1],7-1[8:1],1,{2}7b,
{1},,,{4},,{8}3,
3,6,6,
4,4,5,5,3,3,8,8,
5,5,6,6,1,1,2,2,
3,3,4-8[8:1],4,4/2,{16},,,,2,3,
4,5,1,8,7,6,5,4,{4}3/1-5-2b[4:1],{8}1,7-4[8:1],
,7,{4}3-6-2b[4:1],{8}3,8-4-7[4:1],,8,
{4}2h[8:1],{24}3x,4x,3x,4x,{48},,,,{16}2h[8:1]/B1,B8,{8}E8,{16}6h[8:1]/B5,B4,{8}E4,
{16}2,1,3,8,E3,B3,{8}B4,{16}B8,B7,{8}E7,{16}E2,C,{8}E6,
{24}7x,8x,7x,8x,,,{8}6/1,2/5,{4}3/4-6-1[4:1],{8}4,2-4-8b[16:3],
,2,{4}6-1-5[4:1],{8}6,3-6-2b[4:1],,3,
{4}7h[8:1],{24}6x,5x,6x,5x,{48},,,,{16}2h[8:1]/B7,C,{8}B3,{16}7h[8:1]/B2,C,{8}B6,
{16}3,4,2,5,1,6,1,6,2,7,2,7,3,8,3,8,
{24}E3/B3,E2,E1,E8,E7,E6,{4}E5/7-3[8:1],{2}7/Cf,
{8},,,3h[8:1],4,6h[8:1],5,8/3,
2/7,6h[8:1]/1h[8:1],{16},4h[8:1]/7h[8:1],,,{8}2v5[8:1],5V38[8:1],2,6,
,7,{4}2-6[8:1],{8}2b>5b[8:1],5-2[8:1],{4}2bV48b[8:3],
{8}6,6,7<4[8:1],7,{4}7b/1-5-2[4:1],1,
{8}7-3[8:1],7,7b<4b[8:1],4-7[8:1],{4}7bV51b[8:3],{8}3,3,
2-6[8:1],2,{4}2b/8x,7h[8:1]/5h[8:1],{8}2-5b[8:1],8-4[8:1],
2b,8>3b[8:1],,8b<5[8:1],,8,{16},,8,1,
2,3,4,5,6,7,8,1,{8}2/6-1[8:1],5,6/3-8[8:1],4,
3/7<4[8:1],6,7/1-5[8:1],2,1/7-4[8:1],8,7/2-8[8:1],3,
2/5-1[8:1],6,5/3-8[8:1],2,{4}3/5,{8}7-4b[8:1],1-5[8:1],
7b,1<6b[8:1],,1b>4[8:1],,1,{16},,1,8,
7,6,5,4,3,2,1,8,{4}7h[8:1]/3h[8:1],6h[8:1]/2h[8:1],
5h[8:1]/1h[8:1],8h[8:1]/4h[8:1],7h[8:1]/3h[8:1],6h[8:1]/2h[8:1],
5h[8:1]/1h[8:1],4h[8:1]/8h[8:1],{8}1/2,8/3,7/4,1/8,
7/2,6/3,8-4[8:1]/7-3[8:1],6/1,{16}8/7,,,B1/B2/E2f/A1/D2/A2,,,{8}B5/B6/E6f/D6/A5/A6,
{2}Ch[4:1],{4}B8/D4/D3/D2/D8/D7/D1/Cf/E3/E1/E8/D5/B3/E2/B2/E4/B4/E5/B5/E6/B6/E7/B7/B1/D6,{8}4x/5x,{16}2,1,
{8}2,6/3,{16}7,8,{8}7,{4}6/3,{24}1,8,1,8,,,2,
7,2,7,,,{8}1-5[8:1]/8-4[8:1],8/1,{4}8b/1b,{16}2-5[8:1],1,3,8,
{8}2,{16}7-4[8:1],8,6,1,{8}7,{16}2,1,3,8,4,7,5,6,
{24}5x,4x,3x,2x/1x,8x,7x,{8}5x-1[8:1]/6x-2[8:1],6/5,{4}6b/5b,{8}3/6,{16}7,8,
{8}7,6/3,{16}2,1,{8}2,6/3,{24}E2,E8,B2,B7,B3,B6,E4,{12}E6,
{8}6xv1[8:1],1xV74[8:1],6,2h[8:1],,,3xv8[8:1],8xV25[8:1],
3,7<4[8:1],,7>2[8:1],,7-3[8:1],,7,
,5/4,6/3,7/2,{4}1/8h[4:1],3>6[8:1],
{2}3,{4}8/1h[4:1],6<3[8:1],
{2}6,{4}3/4h[2:1],1-5[8:1],
{2}1,{4}6/5h[2:1],8-4[8:1],
{2}8,{4}6/5h[4:1],8,
{8},3/4,{4}5/2,3/4h[4:1],1,
{8},7/8,{4}1/6,{16}5h[8:1]/3h[8:1],,,5h[8:1]/2h[8:1],,,{8}4h[8:1]/6h[8:1],
{16},4h[8:1]/7h[8:1],,,7/4,,,8/1,2h[8:1]/7h[8:1],,,3h[8:1]/5h[8:1],,,{8}7/4,
2/1,8/3,7/4,6/5,{16}3h[8:1]/8h[8:1],,,5h[8:1]/2h[8:1],,,{8}1h[8:1]/6h[8:1],
,7/2,{16}4h[8:1]/8h[8:1],,,6/3,6h[8:1]/3h[8:1],,,5/2h[8:1],,,6,7,
8,1,2,3,4,5/1,2/6,3/7,{2}8-6-4-2-8[4:15]/4p6p8p2p4b[4:15],
E
