&title=Träne
&artist=MALVE.
&first=0
&des=AsukaHana
&lv_5=14
&inote_1=
&inote_5=(135){4},,,,{8}6<2[8:3],,,,3>6[8:3],,,,5pp1[2:1],,,,4h[2:1],,,,8pp7[8:3],,,,5^2[16:3],,,,6pp1[2:1],,4,4h[8:4],,,,7,7^5[8:1],,2,,2^4[8:1],,7,,8^5[8:1],,1,,1^4[8:1],,8,,8<4[4:1],,4>8[4:1],,8<4[4:1],,4>8[4:1],,8-6[8:1],,5-1[8:1],,2,2h[4:1],{16}8,7,6,5,{8}34,34,{16}3,4,3,4,3^6[8:1],4,3,,34,,,,56,,56,,6,5,6,5,6,5,6h[8:1],,5h[8:1],,4,,34,,34,,3,4,3,4,3-1[8:1],4,3,,34,,,,8-6[8:1]/6,,7,,1/8-4[8:1],,2,2,8v2[8:1]*-3[8:1],,1,,,,,,5h[4:1]/7h[8:5],,,,,,1,,1,,8,7,1h[4:1],,6,,5<1[16:3],,,1>7[16:5],,,3,,3h[4:1],,,,,,,,8-4[16:2],,,1,,,2,,3-7[16:2],,3,,4,,5,,6^1[8:1],,,,56,,,,12,,3b/8b,,3b/8b,,4^7[8:1],5,3h[8:3],,,,,,8-6[8:1],,8,,2,,2,,4h[4:1],,1^4[8:1],,8,,{24}5V38[16:3],6,7,8,,,{16}56,,,,7^4[8:1],1,7,1,7,,,,23,,7,8,16,,{24}3,4,3,4,,,{16}25,,2h[4:1]/5,,,,4q5[4:1],3,5,2,4,,,,,,3,4,2h[8:1],,7,,2h[8:1],,5,,1,3,1,4,1,5,1,6,78,,12,,3/4qq8[8:3],,56,,,,7,,7,,7,6,5/1h[8:3],,,,,,8,7,6/2-4[8:1],,1,,28,,7,,56,,{24}7,4,7,4,,,{16}1/8qq1[8:3],,,,2,,2,,2,3,4h[8:1],,8,,4h[8:1],,7,6,5h[8:1],,7,6,5h[8:1],,7h[8:1],,2h[8:1],,5h[4:1],,4<1[4:1],3,2,,3h[2:1]/4,,,,,,,,8h[4:1],,2,3,4h[8:1],,2,3,4h[8:2],,1pp3[16:3],,1,,,,5,,5,,4>5[8:2],5,3,6,4,,,,,,6,5,7h[8:1]/4^6[12:1],,3,,,,8,7,8,6,8,5,8,4,8,3,21,,87,,6/5pp1[8:3],,43,,,,2,,2,,2,3,4/8h[8:1],,6,,7/5h[8:1],,1,,3/4h[8:1],,1,,3h[8:1]/4,,6,,4-8[8:1]/7-4[8:1],,,,47,,,,26,,4b/8b,,4b/8b,,1,,1/2^5[8:1],,,,2^7[8:1],,8,8,2^5[8:1],,6,,2,,6,,65,,6,5,7-3[8:1],4,6,2,7,,1b,,8b/2b,,28,37,4/6-8[8:1],,7,,4/6-4[8:1],,2,2,6,{24},3,2,{16}1,5,5,1,1,5^8[8:1],,1,,5v2[8:1],,3,3,,,3b,,3b/4b,,2,5,2,,18,,5/6h[8:1],,2,,3h[8:1]/4,,7-3[8:1],,56,,7,,2h[4:1],,,,7,1,6,3,4-8[8:1],,,,,,1^6[8:1],2,3b/1b,,3h[4:1]/1b,,,,4qq2[16:3],5,4b/6b,,4b/6h[4:1],,,,3,4,5h[4:1],,,,6V48[8:2],5,7,4,6,,,,1-5[8:1],,,,1-3[8:1]/8,,,,1-5[8:1],7,7,,1-3[8:1],,8,8,1-5[8:1],8,7,6,1-3[8:1],,7,,1-5[8:1],8,8,,8-4[8:1]/1-3[8:1],,,,8b/1b-5[8:1],,,,8-6[8:1]/1,,,,8-4[8:1],,2,,8-6[8:1],,1,2,8-4[8:1],1,2,3,8-6[8:1],,1,,8-4[8:1],2,2,,8-6[8:1]/1-5[8:1],,,,8b/1b,,,,36,,4,5,4,2,4,,36,,5,4,5,7,5,,4^7[8:1],,3,,4^1[8:1]/2,,3,,4,5,5qq5[4:1],,,,5<3[4:1]/6,,6h[8:3],,,,,,,,,,4,5,36,,25,,1>5[4:1]/4,,14,,1-6[16:2]/5v2[16:2],6,7,8,1b,,,,,,,,{4}5q8[8:4]/3h[4:3],,,{16},,7,1,{4}7<2[2:1]*p2[2:1],,,,1q4[8:4]/5h[4:3],,,,3>6[2:1]*-8[4:1],,,{16},,2^5[8:3],,2h[1:1],,,,,,,,,,6,,5,,4,,3q8[4:1],,,2,,,2,,1q3[2:1],,7,,7,,,,5<2[8:5],,,,,,,,2,,,3,,,4z8[8:5],,{1}4h[8:8],{16}7h[8:3],,,,,,6-3[4:1],,,,,,8,,1,,2h[8:3],,,,,,4-8[4:1],,,,,,7^4[4:1],,,,7,,,,,,3,2,{12}1h[8:3],,3,{16},,8,7,{16}6/1-5[8:1],,,{16}6,1,,7w3[8:1],,,,,,,,2,4,2b>7[4:1],,,,,,,,,,,,,,7,8,7b<2[4:1],,,,,,,,,,,,1,8,1,8,1b>7[2:1],,,,,,,,7b>5[2:1],,,,,,7,6,{1}5bqq2[4:4]*pp8[4:4],,,,,{16},,,,,,,,,,,,,,1,,7h[2:1],,,,5,,,,2h[2:1],,,,4,,,,8h[2:1],,,,6,,,,1h[2:1],,,,3,,,,7<3[4:1],,,8,,,1,,2>6[4:1],,,1,,,8,,7-3[16:4]*V15[16:8],,,,,,,,,,,,4pp5[2:1]*qq3[2:1],,,,4,,,,,,,,,,,,,,,,4bw8[8:1],,2b/6b,,,,,,5bw1[8:1],,3b/7b,,,,,,8b^5[8:1]/2b,,7b,,{24}4-8[8:1],3,2,{16}1,,3-7[8:1]/4,,2,,3/4,,5,,3-8[8:1]/4,,,4,3,,5,,3^6[8:1]/4,,,4,3,,7,,1-5[8:1]/8,,,7,1^4[8:1]*^6[8:1],,8,,1bw5[8:1],,,,,,,,46,,1/8-4[8:1],27,3^8[8:1]/6,,8b,,3b,,5-1[8:1],6,7-3[8:1],,5b,,7b,,2,,5pp4[4:1],4,7,2,5b,,,,1h[8:5],,,,3,,4,,5qq4[4:1],,6h[2:1],,,,,,,,5,4,3,,4,,5,,6h[8:3],,,,,,4,5,2,4,3b^6[2:1],,,,,,,,,,,,,,,,3h[384:1],,4h[384:1],,5h[384:1],,6,,,,,,,,,,3h[384:1],,4h[384:1],,5,,6,,,,,,,,,,3h[384:1],,4,,5,,6,,,,,,,,,,{16}3^6[1:1],,,,,,,,,,,,,,,,,{1},,
