&title= 天国
&artist= 森羅万象
&first=0
&des=Holi Paradise!!
&clock_count=4
&lv_5=12+
&inote_5=(180)
{1}
,
{64},
{8}
,,,,,,,,
{8}
E7,E6,E5,E4,,Ch[8:1],,,
E6,E5,E4,E3,,Ch[8:1],,,
6x,5x,4x,3x,,6h[8:1],,,
3x,4x,5x,6x,,3h[8:1],,,
7/4,6,5,4,,5,4/6,,
2/5,3,4,5,,4,5/3,,
4h[8:2]/6,,5,5h[8:4]/3,,4h[8:2],,,
,7x,6x,5x,3x,2x,1x,,
{16}
8bxw4b[4:2],,,,,,,,
,,,,,,,Ch[16:1],
{8}
,,,,,,3h[4:1],,
7<4[8:1],,7,2q6[4:1],,2,7,8pp6[4:2],
,,,,,4,3,2,
1-5[8:1],,1,7p3[8:1],,7,2,1qq3[4:2],
,,,,,5,6,7,
8h[8:2],2,3,4,6,4-1[8:1],,4/6,
,7,6,5,3,5-1[8:1],,5/3,
2>5[8:1],,7/2,8-4[8:1],,8,2,1qq6[8:4]*pp4[8:4],
,,,,,,7xh[4:1],,
2>5[8:1],,2,7v4[4:1],,7,2,1qq3[4:2],
,,,,,5,6,7,
8-4[8:1],,8,2v5[8:1],,2,7,8pp6[4:2],
,,,,,4,3,2,
1h[8:2],7,6,5,3,5<8[8:1],,5/2,
,2,3,4w8[8:2]/Cf,,,,,
,2,3,4-8[8:1],,7-5[8:1],,1>4[8:1],
,1,6,7,8-4[8:1],,8,,
{8}
2bh[8:4],5,6,7,8,1<6[8:1],,1/3,
,4,3,2,1,8v3[8:1],,8/6,
,5,6,7,8,1-5[8:1],,3/1,
,2,4,3,5,4,6,3,
7x-4[8:1]/3,,73,,5x-8[8:1]/2,,52,,
7xv4[8:1]/1,,71,,5x-8[8:1]/3,,53,,
2x-5[8:1]/6,,26,,4x-1[8:1]/7,,47,,
2xv5[8:1]/8,,28,,4x-1[8:1]/6,,46,,
7,4,6,3,5,2h[8:2],,6pp1[8:4],
,4/6,3,2pp5[8:4],,,,,
,8,7,6-1[8:1],,2-5[8:1]/6,,8-4[8:1]/2,
,8,2,3<6[8:1],,7v4[8:1]/3,,2/7,
2x-5[8:1],,2/7,,4x-8[8:1]/6,,6/4,,
7x-4[8:1]/1,,7/1,,5x-1[8:1]/3,,3/5,,
2>5[8:1],2,8-4[8:1],8,1-5[8:1],1,7<4[8:1],7,
1w5b[8:8],,1b,,,,,,
,,,,,,,,
,,,,,,,,
,,,,,,,,
{8}
4xp2[8:4]/6x,,,,C,,,7,
7p5[8:4],,,,C,,,2,
2-5-7[8:3],,,7-1-3[8:3],,,5,,
6p4[8:4],,,,C,,,,
1q3[8:4],,,,C,,,5,
5q7[8:4],,,,C,,,2,
1q5[8:3],,,5>1[8:3],,8x,7x,6x,
5xp4[8:4],,,,C,,,,
3h[4:2],,,4<7[8:2],4,,,1>4[8:2],
1,,,6<1[8:2],6,,,3,
4h[8:3],,,6h[8:3],,,2h[4:1],,
8p6[8:4],,,,C,,,,
4h[8:4],,,7,6h[8:3],,,1,
2xqq3[8:6],,,,6xqq7[8:6],,,,
,,1bxw5b[8:10],,,,,,
,,,,,,,,
{16}
2b-6[8:1]/8b,,,,2/8<4[8:1],,,,
8,,,,3,,2,,
1-6[8:1],,,,1/4v7[8:1],,,,
4,,,,1,,2,,
3V17[8:2],,,,7V53[8:2],,,,
3,,,,8-6[8:1]*-5[8:1],,,,
8-3[8:1]*-2[8:1],,,,8-4[8:1],,,,
8,,,,3,,2,,
1b<6[8:1],,,,1/4-8[8:1],,,,
4>1[8:1],,,,4/7,,6,,
5-1[8:1],,,,5/2q6[8:1],,,,
2/7<4[8:1],,,,7x/3,,2,,
1>5[8:1],,,,1,,7v4[8:1],,
,,7,,1,,,,
7,,64,,2,,53,,
,,8,,6bx/3bx,,,,
7b<4[8:1]/2b,,,,7/3>8[8:1],,,,
3,,,,7,,6,,
5-1[8:1]/3,,,,5>2[8:1],,,,
5,,,,8,,7,,
6V42[8:2],,,,2V86[8:2],,,,
6,,,,4-2[8:1]*-1[8:1],,,,
4-7[8:1]*-6[8:1],,,,4-8[8:1],,,,
4,,,,7,,6,,
5b>2[8:1],,,,5/8-4[8:1],,,,
8<5[8:1],,,,8/3,,2,,
1-5[8:1],,,,1/7p3[8:1],,,,
7/2v5[8:1],,,,2x/6,,7,,
8bx/4bx,,,,2>5[8:1],,2,,
7p3[8:1],,7,,1-5[8:1],,1x,,
1bxpp4b[8:4]*qq6b[8:4],,,,,,,,
,,,,,,,,
{16}
3x,,4,,5,,6,,
,,Ch[8:1],,,,,,
3,,4,,5,,6,,
,,Ch[8:1],,,,,,
2,,3,,4,,5,,
,,6h[8:1],,,,,,
1,,2,,3,,4,,
,,5h[8:1],,,,,,
7,,6,,5,,4,,
,,3h[8:1],,,,,,
8,,7,,6,,5,,
,,4h[8:1],,,,,,
4/6h[4:1],,,,3,,3h[4:2]/5,,
,,5h[4:1],,,,,,
,,3x,,2x,,1x,,
8x,,7x,,6x,,,,
3h[8:3],,4,,5,,6,,
,,3x,,3x/5x,,,,
4h[8:3],,5,,6,,7,,
,,4x,,4x/6x,,,,
6h[8:3],,5,,4,,3,,
,,6x,,6x/4x,,,,
5h[8:3],,4,,3,,2,,
,,5x,,5x/3x,,,,
6x,,5x,,4x,,7x,,
6x,,5x,,4x,,3xh[8:3],,
,,7x,,6x,,5x/3x,,
,,4x,,3x,,2x,,
2xq6[8:2],,,,2x,,8xp4[8:2],,
,,8x,,,,
(180)
{16}
1x,2x,
3x,,E7,,E6,,E5,,
(173)
E4,,E3,,E2,,E1,,
,,E8,,,,,,
(188)
,,,,,,,E6,
E5,E4f,,,,,,,
