&title=Supernova
&artist=雄之助、春野
&first=0.04
&des=心に近づいて、一緒に
&lv_5=14
&inote_5=(105){1},
{4}53,54,{16}6-4[12:1]/4,,{24},,3,,,{24}3h[24:1],,,3-6[12:1],,,4,3,,{48},7,{24},{16},{48}7h[48:7],{8},{4}5,C,
{4}46,45,{16}3-5[12:1]/5,,{24},,6,,,{24}6h[24:1],,,6-3[12:1],,,5,6,,{48},2,{24},{16},{48},{8}2h[48:6],{4}4,Ch[16:3],
{8}5x-7[12:1],4,{64}5/E3,B3,{32},{16},{8}4,{8}5-8[12:1],4,{64}5/E3,B3,{32},{16},{8}4,
{8}5-1[12:1],4,{64}5/E3,B3,{32},{16},{8}4,{8}5-8[12:1],4,{64}5/E3,B3,{32},{16},{8}4,
5p8[12:1],6h[4:1],5-7[12:1],2xh[8:1],5,,{24}3,,{96},{24}4,{24}3,{96},{48},{12}4<7[8:1],,{8}8,1,2,
{4}3w7[12:1],3,{2}8x<5[4:1]/3xpp1>2-7[8:5],,8x>1-6-2>5[8:5]/5x-3[8:1],{4},,{2}8x-6<7v5[8:3]/1x>3[6:1],,3qq5[8:3]/6pp4[8:3],,
{16}74,,{24}5,,7,4,,6,,,5,7,,,4,,6,,,5,7,,3,46,
{24},,2,,5,,,3,4,,2,5,,3,4,,2,5,,3,4,,2,
{16}18,,{24}8,,6,1,,7,8,,6,2,,,8,,3,1,,2,8,,1,
{4}E7,C,{12}E3,
{24}8,1,,4,5V71[12:1],,8,1,,,
{8}5bV31[12:1]/3b,,5b/1bw5[12:1],,1b,,
{24}7-4[12:1]/8,,,6,,1-5[12:1],,,2,,,,7,,8<5[12:1],,,8>3[12:1],,,8x,1,,8x,{4}7,
{24}26,,8,7,,3<6[12:1],4,,8,1,,3,{8}8v3[12:1],7,28,1,
{24}68,,1,7,,4>6[4:1],5,,8,1,,{24}4,5,,,,,{24}5,,,,45,,4-8[12:1]/5-1[12:1],
{4}4bh[24:5]/5bh[24:5],Cf,
{8}7-3[12:1],6,5-1[12:1],4,3-7[12:1],2,1-5[12:1],8-4[12:1],1>4[12:1],8<5[12:1],1,8,
{24}2,,8,2,,5<3[4:1],4,,1,8,,{24}5,4,,,,,{24}4,4,,,26,,,
84,,3,3,,1,1,,8,8,,6,6,,1,1,,5,5V73[8:1],,3,3,,,
{4}5/8-4[12:1],3V15[8:1]/8,8-6[12:1]/3,{24}38,,,,,
{24}2,{8}1<6[12:1],2,1s5[12:1]b,2,{24}16,,,,,4,5,,8,1,,4,
{4}5-2[12:1],{60}5x,E6,B6f,B7,E8,
{12},,1,7<4[12:1],{24},18,,,78,,,1-5[12:1],,,56,,,17,,,8,1,,2-5[12:1],,,78,,,2,1,,,36,,,
{8}4-7[12:1],35,{60}4x,E4,B3f,B2,E2,
{12},,8,{24},2>5[12:1],,81,,,1,2,,7,,,46,5,,46,,,24,3,,24,3,4,5,36,4,5,{8}3>2-8[12:1]/6<7-1[12:1],,
{4}3-5[12:1]/6-4[12:1],36,{12}Ch[24:5],,{24},E7/E3,{8},,75,6,24,3,{12}Ch[24:5],,{24},E1/E5,{4},
{8}4h[8:1],8,3h[8:1],7,2h[8:1],6,{16}1h[4:1],5,{8},8h[8:1],4,7h[8:1],3,6-2[12:1],,36,,
1>4[12:1]/8<5[12:1],,18,,{12}Ch[24:5],,{24},E2/E6,{4},
{8}46,7,35,2,{12}Ch[24:5],,{24},E8/E4,{4},
{64}3,4,5,,{16},{8},,{64}7,6,5,,{16},{8},,{64}8,1,2,,{16},{8},
{24}57,46,35,,,,24,35,46,,,5,7,4,6,3,5,2,{8}4V28[12:1],71,
{8}4bV68[12:1],,4b/8bw4[12:1],,8b,,
{24}2>5[12:1]/1,,,3,,8-4[12:1]/2,,,7,,,,2,,1>4[12:1],,,1<6[12:1],,,1x,8,,1x,
{24}2x,,E3,E4,,
{24}E7,E8/1x,,2,1,,6>3[12:1],5,,1,8,,6,{8}1v6[12:1],2,71,8,
{24}31,,8,2,,5<3[4:1],4,,1,8,,{24}5,4,,,,,{24}4,,,,54,,5<8[12:1]/4>1[12:1],
{4}5bh[24:5]/4bh[24:5],D7f/D3f,
{8}2q6[12:1],3,4q8[12:1],5,6q2[12:1],7,8q4[12:1],1-6[12:1],8<5[12:1],1>4[12:1],8,1,
{24}7,,1,7,,4>6[4:1],5,,8,1,,{24}4,5,,,,,{24}5,5,,,73,,,
15,,6,6,,8,8,,1,1,,3,3,,8,8,,4,4V26[8:1],,6,6b,,,
{4}4/1-5-3[8:1],2V86[9:1]/1,{24}4-8[12:1]/2,,,,,2,
{24}4,,2,2,,1,{8}1v6[12:1],82,17,{24}8,,7,8,,4,3>8[12:1],,8,1,,5,3,,,
{8}6<8[8:1],8-4[8:1]/2,4>1[8:1]/6,5,5,5,{12}5-8[12:1]/4,3,{24},2,
{24}5,,2-5[12:1],1x,,7-3[12:1],8,,2,1,,7,{8}8,26,45,37,
{4}1h[4:1]/8h[4:1],{96},7bV15[8:1]/2,3b/6,4/5b,,,{16},{8},{24}2-6[12:1]/7,,,,,5,
{24}2,,7,7,,8,{8}8v3[12:1],71,82,{24}1,,2,1,,5,6<1[12:1],,1,8,,4,6,,,
{8}3>1[8:1],1-5[8:1]/7,5<8[8:1]/3,4,4,4,{12}4-1[12:1]/5,6,{12},
{4}7h[8:1],8h[8:1],1h[8:1],{12}2h[4:1],7,,{1}C,,E
