&title=* ~アスタリスク~
&artist=Poppin'Party
&first=0
&lv_5=13+
&des=大家我都喜欢哦
&des_5=DJL2374
&inote_5=
(128){4},,,,,,,,{8}6/4,
{16}3,5,4,6,{8}3,{16}5,4,{8}5,4/6,3/7,
2/6,2-5[8:1],1,2/8h[4:1],,{16}4,7,{4}4b,
{16}6,5,,5,{8}7,{16}7,2,,2,{8}4,4,6,
8-4[8:1],{16}7,1,{8},{16}3,5,{8},5/2,6b/1b,{16}3,5,
3,5,4,6,4,6b,,2,5,2,5,1,6,1,6,3,
4,3,5,4,5b,{8},{16}3,6,3,,5,{4}4b/6b,
{16}4,5,,5,{8},{16}1,8,,7x,2x-5[8:1],7x,{8}2x,7-4[8:1],
{16}8,8,,3,{8}3,{16}6,6,{8},4-1[12:1],5,4,
{16}7,8,7,8,6,1,6,1,5,2,5,2,4,3,,3,
4,3,4,2,5,2,5,2,1,2,1,3,{8}8-4[8:1],1/2,
{16}8,2,,2,{8}4,{16}4,3,,3,6<1[12:1],4,{8}5>2[12:1],6,
{16}5,7,,7,{8}3,{16}3,6h[16:3]/5h[16:3],{4},{8}4/7,3/8,
{16}2,1,2,1,{8}2,{16}2,4,2,4,{8}2,5,3,
{16}2,7,,2,{8}7,{16}1,8,,1w5b[8:1],{8}8,{4}1bx,
{8}8/3,2,6/3,7qq3[4:1],1,7,2,1,
6/8-4[8:1],7/1,8/2,3<5[8:1],2,{16}7/3,8,{4}1-5[8:1],
{8}1/7,8,7/3,4,5/8h[4:1],5>3[8:1],,{16}1x/5x,8x,
{8}7x,1/5-8[8:1],7,5/1-4[8:1],3,1,{4}5h[8:1],
{8}1/6,7,3/6,2pp6[4:1],8,2,7,8,
3/1-5[8:1],2/8,1/7,6>4[8:1],7,{16}2/6,1,{4}8-4[8:1],
{8}8/2,1,6h[4:1],2,3,6,6/5,7b,
8/3,2b,5/4,6b/3b,{4}6b/3b,{16}5,4,6,4,
{8}6,7/1,{16}2h[8:1],{8},{16}6,5,7,5,7,4,8,{8}4,
{16}1,2,8,2,8,3h[8:1],,7,4,6,5,5,{8},{16}3,4,
1,6,1,6,{8}2h[8:1],{16}5,3,4,1,4,1,{8}6,{16}2,8,
4,1,4,1,3,7,{8}3,4,{16}3/7,3/7,{8}7/3,{16}6,5,
6,4,5,3,5,3,,2,4,2,4,3,5,3,,7,
8,7,1,8,2,8,2,4,3,5,2,4,{4}2h[8:1],
{16}7,4,7,3,8,4,8,3,{8}7h[8:1],4h[16:1],,6/5,
4/7,4/7,7/2,8b/1b,{4},{16}2,5,2,5,
3,7,{8}3h[8:1],6,{16}4,7,4,8,4,1,4h[16:3],{8},{16}5,
3,5,2,4,{4}2h[8:1],{16}6,5,6,3,{8}6h[8:1],{16}3,4,
3,8,4,5,4,8,5,6,5h[8:1],8,{8},{16}4,4,6,5,
6,4,7,4,7,2,7,2,7,3h[16:3],{8}6h[8:1],,{16}4,5,
4,5,4,6h[8:1],,3h[8:1],,4,{8},{16}4,2,4,1,5,5,
2,6,2,7,3,8,4,7,3,7,{8}3h[8:1],{16}5,2,7,2,
6<1[8:1],3,{8}7h[8:1],6bx,{16}5,5,2,2,4,3,{8}4h[8:1],{16}2-6[8:1],5,
{4}2h[8:1],{8}3,{16}7,7,3-1[8:1],3,7,3,{4}7h[4:1],
{16}3,6,1,7,2,7,1,6,1,6,{8}2,{16}2,7,3,6,
4,5,4,5,{8}3/6,{16}2,5,2,5,3>8[8:1],4,3,4,{8}3/5h[8:1],
,6/4,{16}3,7,4,7,3>8[8:1],8,4,8,{4}3/7h[8:1],
{16}6,6,3,3,8,8,1,1,6,3,{8}2xh[8:1]/7xh[8:1],,3xh[8:1],
4b,4b,{16}4b,4b,,4b,{8}4b,4b,{4}5b/3b,
{16}7<4[8:1],1,,1,{8}7,{16}2>5[8:1],6,,6,{8}2,7,1,
{16}6/4,6/4,,7/3,{8},{16}8/1,1/8,{8},6/2,5b/3b,{16}6,4,
5,3,5,4,6,4b/7b,,8,2,8,2,4,2,4,2,6,
2,7,2,6,6b/4b,{8},{16}5,6,5,,5/3,5b/3b,6/2,{8}6/2,
{16}8,1,,8,{8},{16}1,8,,2x,7x-4[8:1],2x,{8}7x,2-5[8:1],
{16}1,1,,6,{8}6,{16}3,3,{8},8-4[8:1],7/1,8,
{16}3,5,3,5,4,6,4,6,5,7,5,7,1,8,,7,
8,7,2,1,2,1,2,6,5,6,5,6,3,4,{8}3,
{16}8/5,8/5,,6/3,{8}6/3,{16}4/1,4/1,,2,7,2,{8}6h[8:1],3,
{16}5/2,5/2,,7/4,{8}7/4,{16}4/1,4h[16:3]/1h[16:3],{4},{8}7/3,2,
{16}7,8,7,8,{8}7,{16}7,5,7,5,{8}7,5,8,
{16}2/7,2,7,4,{8}4,{16}5,5,,7,7,2,8,1,{8}7,
{16}3b,6,,4,{8}5,{16}1,5,{8}1,1<6[8:1],5,1>4[8:1],
5,1,5,{16}5,1,{8}5,2,3/7,6,
{16}5/1,1,,2,{8}2/6,{16}7,7,3,8,{8}8,7/4,6,
{16}3,6,4,7,3,6,1,5,2,6,3,8,1,7,{8}2,
3/5-8[4:1],5,5,5,{4}5,{8}2,5,
{16}4,6,,4,{8}6,{16}4,2,,4,{8}2,{4},{8}7/1-4[4:1],
1,1,1,{4}1,{8}6,2,
7,4,7,3,{4}3,{8}3,6,
{16}3,5,,3,{8}5,{16}7,5,,7w3b[8:1],{8}5,{4}7bx,
E
