&title=やじゅちゃん体操第1145141919810
&artist=810
&first=0.1
&des=523141
&lv_5=114514
&inote_5=(135)
{4}1b^4[8:1]*^6[8:1],1bw5[8:1],1b,8b-4[8:1],
{4}8b^3[8:1]*^5[8:1],8bw4[8:1],8b,1b-5[8:1],
{4}1b^4[8:1]*^6[8:1],1bw5[8:1],1b-3[8:1]*-7[8:1],1b-4[8:1]*-5[8:1],
{4}1b-6[8:1]*-7[8:1],1bw5[8:1],1b,
{48}8b-4[8:1],8,8,8,8,8,8,8,8,8,8,8,
{4}8b^3[8:1]*^5[8:1],8bw4[8:1],8b,
{48}1b-5[8:1],1,1,1,1,1,1,1,1,1,1,1,
{4}1b^4[8:1]*^6[8:1],1bw5[8:1],1b,
{48}8b-4[8:1],8b,8b,8b,8b,8b,8b,8b,8b,8b,8b,8b,
{4}8b^3[8:1]*^5[8:1],8bw4[8:1],8b-2[8:1]*-6[8:1],8b-4[8:1]*-5[8:1],
{4}8b-2[8:1]*-3[8:1],8bw4[8:1],8b,
1b/2b/3b/4b/5b/6b/7b/8b,
{4}4q8[8:1]/8^5[8:1],4p8[8:1]/8^3[8:1],4q8[8:1]/8^5[8:1],4/8,
{12}1/4,,3,4/8,,7,2-5[8:1]/6-3[8:1],,,,,,
{4}1^4[8:1]/5p1[8:1],1^6[8:1]/5q1[8:1],1^4[8:1]/5p1[8:1],1/5,
{12}7,{995}8,,,,,,,,,,,,,,,,,,,,,,,,,,,,,,,,,,,,,,,,,,,,,,,,,,,,,,,,,,,,,,,,,,,,,,,,,,,,,,,,,,,{12}7,6/8,,1/8,1/8,,,3/6,,,
{4}2-4[8:1]/4pp6[8:1],4-8[8:1],4,1/7,
{4}5qq3[8:1]/7-5[8:1],5-1[8:1],5,8h[1250:2461],
{2}1b>7[16:3],1b>7[16:3],
{64}1,2,3,4,5,6,7,8,1,2,3,4,5,6,7,8,1,2,3,4,5,6,7,8,
1,2,3,4,5,6,7,8,1,2,3,4,5,6,7,8,1,2,3,4,5,6,7,8,
{16}1b-4[8:1]*-6[8:1],,,,
{4}1b,5-2[8:1]*-8[8:1],5b,1-3[8:1]/5-7[8:1],
{4}1b-4[8:1]/5b-8[8:1],1b-5[8:1]/5b-1[8:1],1b/5b,8-3[8:1]*-5[8:1],
{4}8b,4-1[8:1]*-7[8:1],4b,4-2[8:1]/8-6[8:1],
{4}4b-1[8:1]/8b-5[8:1],4b-8[8:1]/8b-4[8:1],4b/8b,
1s5[8:1]/8z4[8:1]/1!-4[8:1]/8!-5[8:1]/1!w5[8:1]/8!w4[8:1],
{1}1b>8[1:1]/8b<1[1:1],
{4},,
1-3[8:1]/8-4[8:1],1V73[8:1]*-5[8:1]/8,
1/2s6[8:1],
8-4[8:1],1V73[8:1]*-5[8:1]/8,
8-6[8:1]/1q4[8:1],81,
8-6[8:1]/1qq5[8:1],
8z4[8:1]/1s5[8:1],8-6[8:1]/1pp1[8:1],
{4}81,{625}1/8,,,,,,,,,,,,,{622}2/7,,,,,,,,,,,,,{625}3/6,,,,,,,,,,,,,4/5,,,,,,,,,,,,,1b/2b,
E
