&title=オペレート・ミー
&artist=黒魔
&first=0
&des=Respect for 零號車輛
&lv_5=14+
&des_5=Respect for 零號車輛
&inote_5=
(196){4},,,,,,,,5,
B4,B3,E3,
6,B5,B4,B3,
7,B6,C,B2,
6,B7,B1,D2,
3,E1,B8,B7,
5,B4,6,B2,
5,B7,B8,B1,
{1}E2fh[8:17],
,,(255){24}1b/7bV53>6b[8:5],
6/2,5/3,4,{4},,,{16},{48},{4}3bh[4:1],
{16}5,4,{8}5h[4:1],{16},,3,4,{4}3h[4:1],
{1}7-4-2<7b[8:5],
{4}4bh[4:1],{16}6,5,{8}6h[8:1],{2}Ch[4:1],
{24}8b/2bV46<3b[8:5],3/7,4/6,5,{4},,,{16},{48},{4}6bh[4:1],
{16}4,5,{8}4h[4:1],{16},,6,5,{4}6h[4:1],
{1}2-5-7>2b[8:5],
{4}5bh[4:1],{16}3,4,{8}3h[8:1],{2}Ch[4:1],
{8}4-2[4:1],4,5,6,7-1[4:1],7,1,2,
3-5[4:1],3,5,6,7v8[4:1],7,3,2,
1-3[4:1],1,8,7,6-4[4:1],6,4,3,
2-8[4:1],2,8,7,6v5[4:1],6,1,2,
{4}3b-8[8:1],{8}7,7b-4[8:1],,2,{4}2b-5[8:1],
{8}6,6b-1[8:1],,5,5b,4,6,7,
{24}8b/2b,7/3,6/4,5,,,,,,1b/7b,2/6,3/5,{4}4,{24}8b/1bs5[8:7],2/7,3/6,4/5,,,,,,,,,,,,,,,,,,{8}Cfh[8:3],
,,,,,,,6,
7,1,
{4}8h[8:3],{8}2,2,,,,,3h[8:5],
,,,,5,6,2,
{4}1h[4:1],7h[4:1],3h[4:1],5h[4:1],
{2}4V28[2:1],8V64[2:1],
4V27[2:1],7>2[4:1],
{4}6V84[4:3],{8}3,3,,,,,{2}2h[2:1],
{4}5,3,
{8}5h[1:1],,,3,,,{4}4,
{2}6-2[4:1],7,
{8}4h[1:1],,,6,,,{4}5,
{2}3-7[4:1],2,
{8}2,2,8,8,3,3,7,7,
4,4,6,6,2,2,8,8,
{1}B6/B7/E7f/1bv4<5v8>1z5[2:3],
{4},,,,7/4h[4:1],
7,{8}4h[4:1],7,6,5,
{4}3/4h[4:1],{8}2,2,{2}4h[4:1],
{4}2/5h[4:1],2,{8}5h[4:1],2,3,4,
{4}6/5h[4:1],{8}7,7,{4}5h[4:1],6,
6V42[2:1],4x,2-6[2:1],4x,
6V82[2:1],4x,2>6[2:1],4x,
2,{8}3,3h[8:5],{2}7h[4:1],
{4}7h[4:1],{16}E3,B3,B4,E5,8,7,6,5,1,2,3,4,
{4}5b/8b-6[8:1],3h[8:1],5/2-6[8:1],7,
5/8-4[8:1],3-5[8:1],6,Ch[4:1],
7b-5[8:1],2h[8:1],4/1-5[8:1],6,
4/7-3[8:1],2>5[8:1],5,{16}7,8,7,8,
{2}7V51[2:1],1V75[2:1],
5>1[2:1],1-5[4:1],
{12}E2,E3,E4,E8,E7,E6,D2,D3,D4,D8,D7,D6,
{2}E5/D5,2h[2:1],
{4}8b-5-3[4:1],{8}3,2<6[4:1],,2,4,4-7-1[4:1],
,1,{4}2-4[8:1],2-8[8:1],2,
1bx-4-6[4:1],{8}6,7>3[4:1],,7,5,5-2-8[4:1],
,8,{4}7-5[8:1],7-1[8:1],7,
7bx-4-2[4:1],{8}2,1>4[4:1],,1,8,8<6-4[4:1],
,4,{4}3-1[8:1],3-5[8:1],3,
{8}Cf/B5/B4,{24},,,,,,,,,,,,,,,,,,6,5,4,
{1}3h[4:3],
{4}8bh[8:3]/3bqq5[2:1],{8},,,,8,7,
6h[16:1],6h[16:1],4h[16:1],4h[16:1],{4}3/5h[4:1],{8}2,2,
2b/6bpp3[16:9],,,1-4[16:3],,,,,2x-6>3[2:1],
,,E7/B7,,,6x,6,
{4}1bh[8:3]/6bpp4[2:1],{8},,,,1,2,
3h[16:1],3h[16:1],5h[16:1],5h[16:1],{4}6/4h[4:1],{8}7,7,
7b/3bqq6[16:9],,,8-5[16:3],,,,,7x>1v6[2:1],
,,E3/B3,,,,,{4}5bh[8:3]/2bpp8[2:1],
{8},,,,5,6,
7h[16:1],7h[16:1],1h[16:1],1h[16:1],{4}2/8h[4:1],{8}3,3,
3b/7bqq2[16:9],,,4-1[16:3],,,,,3x-7>2[2:1],
,,E7/B6,,,7x,7,
{4}4bh[8:3]/7bqq1[2:1],{8},,,,4,3,
2h[16:1],2h[16:1],8h[16:1],8h[16:1],{4}7/1h[4:1],{8}6,6,
6b/2bpp7[16:9],,,5-8[16:3],,,,,{2}6x<1[4:1],
Ch[4:1],
{4}5/2h[2:1],5,5,{8}5/2,3,
{4}5/4h[4:1],5,5/6h[4:1],5,
{6}4h[12:1]/6h[12:1],2h[12:1]/5h[12:1],7h[12:1]/1h[12:1],8h[12:1]/2h[12:1],6h[12:1]/1h[12:1],3h[12:1]/5h[12:1],
4bh[12:1]/2bh[12:1],6bh[12:1]/1bh[12:1],7bh[12:1]/3bh[12:1],4bh[12:1]/8bh[12:1],5bh[12:1]/6bh[12:1],7bh[12:1]/3bh[12:1],
{2}6b/2b,{16}E5,B5,{8}B6h[8:35],,,,,{4}Ch[4:15],
,,{1}B2h[1:3],
,,,6-8-2p6-4-2q6[2:15],
,,,,,,,{4}3h[4:3],
4,5,6,
2,4,7,5,
6h[4:3],5,4,3,
7,5,2,4,
{2}6-4[4:1],2-4[4:1],
7v4[4:1],1v4[4:1],
{8}8h[8:3],,,1h[8:3],,,{4}2,
{1}B6/B2/Cfh[1:2],
,,6h[2:1]/4h[2:1],
{16}6x,4x,6x,4x,6x,4x,6x,4x,6,4,6,4,6,4,6,4,
7x,3x,7x,3x,7x,3x,7x,3x,7,3,7,3,7,3,7,3,
8x,2x,8x,2x,8x,2x,8x,2x,8,2,8,2,8,2,8,2,
{12}1bx,1,1,1bx,1,1,{2}1bx,
{4}5b/2b-5[8:1],1/2,4/8-4[8:1],2/8,
{8}1>4[8:1],5-1[8:1],1,5,2>5[8:1],8-4[8:1],2,8,
3bxh[4:1],{16}2,1,8,7,{8}6bh[4:1],{16}5,4,3,2,{8}1bh[8:1],7,
{16}2/7,6,5,4,3,2/7,6,5,4,3,{8}2h[8:1]/7h[8:1],{24},,,,,,{12}1x/7x,
2,3,4x/7x,6,5,4x/8x,1,2,3x/6x,5,4,
{4}1/3-7b[8:1],3/2,8/1>4b[8:1],7/1,
{12}8x/2x,7,6,2x/5x,3,4,5x/1x,8,7,6x/3x,4,5,
{4}8/6-2b[8:1],6/7,1/8<5b[8:1],2/8,
{12}4bx/1bx,2,3,4,5,6,4b/7b,5,6,7,8,1,
2b/7b,8,1,2,3,4,5b/2b,3,4,5,6,7,
{4}8bh[16:3]/4bh[16:3],{16}3/7,2/6,{8}1h[16:3]/5h[16:3],{16},,6/2,7/3,{4}4/8h[4:1],
{2}B8/B1/Ch[4:1],{16}6,5,2,3,6,5,2,3,
7,6,1,2,7,6,1,2,{8}8h[16:1],8h[16:1],8h[16:1],8h[16:1],
{16}2,7,2,7,2,6,2,6,2,5,2,5,2,4,2,4,
{4}2h[8:1],{32}B3,C,{16}B7,,,,,,,,,,,{1}8>4[1:1],
4<8[1:1],
8V24[1:1],
4V68[1:1],
8>4[1:1]*v2[2:1],
4<8[1:1]*v6[2:1],
{8}8>6[4:5],{16},,,,,,,,,,,,E1,B8,
{1}B7h[4:3],
{4}1h[1:1],2,3,4,
5h[1:1],6,7,8,
1<6[2:1],1,2,3,
4>1[2:1],4,5,6,
7>2[2:1],7,6,5,
4-2[4:1],5,4-6[4:1],3,
4h[4:5],7,7,8,
{2}8h[4:1],{8}8b,6b,2b,4b,
{4}6bh[4:1],{16}1,7,1,7,1,2,3,4,7,6,5,4,
{4}2bh[4:1],{16}5,3,5,3,5,6,7,8,3,2,1,8,
{4}5bh[4:1],{16}8,6,8,6,8,1,2,3,8,7,6,5,
{4}1bh[4:1],{16}4,2,4,2,4,5,6,7,4,3,2,1,
{4}6bh[4:1],{16}4,5,4,5,{4}3bh[4:1],{16}8<4[8:1]*V64[8:1],2,8,2,
{4}8b>4[8:1]*V24[8:1],8b<4[8:1],{32}8b>4[8:1],A7f,A6f,A5f,{8}A4f,{32}8bw4b[2:9],A1f,A2f,A3f,{8}A4f,
{16}7x,1x,7x,1x,7x,1x,7x,1x,7x,1x,7x,1x,7x,1x,7x,1x,
7x,1x,7x,1x,7x,1x,7x,1x,7x,1x,7x,1x,7x,1x,7x,1x,
7x,1x,7x,1x,7x,1x,7x,1x,7x,1x,7x,1x,7x,1x,7x,1x,
7x,1x,7x,1x,7x,1x,7x,1x,7x,1x,7x,1x,7x,1x,7x,1x,
{1}8b,
E
