&title=Mandragora
&artist=Daliy & Roon_Kun
&first=0
&des=Dasongbing
&lv_5=14
&des_5=Dasongbing
&inote_5=
(200){4},,,,,,,,{1}6-4-1[1:1],
{2},3,
{1}3-5-8[1:1],
{2},6,
{1}7>6[1:2],
{4}8,1,2,3,
{2}4,5,
{1}6-4v7[2:1],
{8}4h[4:1],,,3,,,{4}5,
7<5[4:1],,,5/4,
,5/6,,5h[4:1],
,4,,4,
{1}2-4v1[2:1],
{4}5h[4:1],,,4,
,4,,5,
B6,Ch[4:1],{8},,,,5/4bx,
5,5/4,4,5/4,5,5/4,4,
5/6,7,5/6,4,5/6,7,5/6,4,
5/3,2,4/3,5,4/3,2,3/4,5,
4/3,2,3/5,4,7/5,6,4/5,2/1,
{4}8/7-3[8:1],7/8-4[8:1],8/1-5[8:1],1/2-6[8:1],
2/1-5[8:1],1/8-4[8:1],8/1-5[8:1],1,
{8}6,6,3,3,7,7,4,4,
B8,B6,{16}E3,B3,{8}B4,{2}Cfh[8:1],
{4}1bx/8<5[8:1],8/1>4[8:1],8/1,{16}6,5,7,3,
4,2,6,5,{8}7,2,3,4,5/6,7/8,
{4}2/1<6[8:1],1/2>5[8:1],2/1,{16}8,7,6,1,
2,3,6,5,{4}7b-4[8:1],{2}5x-2[8:1],
{4}4/5<8[8:1],5/4>1[8:1],{2}5/4,
{4}5/4>1[8:1],4/5<8[8:1],5/4,{8}E3,E5,
5/6,7,5/4,3,5/4,6,4/3,2,
5,{16}8x,7x,{8}4,{16}1x,2x,{8}5,{16}8x,7x,{4}4,
8bx-6[8:1],{8}4/8-2[8:1],4,4/8-6[8:1],4,{4}4,
{8}8,{16}2,3,{8}4x/8-2[8:1],5,5/8-6[8:1],5,5,{16}3x,2x,
{4}1x-3[8:1],{8}5/1-7[8:1],5,5/1-3[8:1],5,{4}5,
{8}5,{16}8,6,{8}4,{16}1,3,{8}5,{16}8,6,{8}4,1,
{4}8-6[8:1],{8}2/8-4[8:1],2,2/8-6[8:1],2,{4}2,
{8}8,{16}3x,4x,{8}5x/8-4[8:1],5,5/8-6[8:1],5,{4}5,
5/4,{8}5,4,3,2,{4}1,
{8}5/1,6,5/2,6,5/3,6,5/4,6,
{4}5/7,{8}5/6,8,5/4,8,{4}4/3,
{8}6,{16}2,1,{8}3,8,5/4,1,{4}6/5,
3h[8:1],{8}5/4,8,5/6,8,5/4,1,
4/3,8,5/4,1,5/6,8,{16}3x,4x,,1x,
{4}2bx,{8}5/3,5,{16}5/8,,,3,4,2,6,5,
{8}7,4,4,{16}6,5,7,3,4,2,6,5,{8}7,
4/3,2/1,,,{4}8,7,
6/5-1[8:1],4/5,{16}4x,4x,{8}4x,{4}4x,
6/5bx,{8}4/3,5,4/3,2,{4}5/4,
{8}6/5,{16}3,4,{8}3,7,4/5,2,{4}5/4>2[8:1],
5,{8}5/6,5,7/8,7,6/5,5,
5/6,4/3,2/1,8/7,6/5,6/5,{4}4/3,
5/6h[16:3],{8}3/4,3,{4}5/6h[16:3],{8}2,{16}2x,3x,
{8}4x,5,7,{16}7x,6x,{8}5x,4/3,2/1,8/7,
6/5h[8:1],,,5,{16}4,5,3,6,4,5,3,6,
{4}8bxw4[8:1],8,1bxw5[8:1],1,
{1}Cf/B7/B2/B3/B6,
,,,{16}6h[16:3],
,,5h[16:3],,,{8}6,{2}5,
{8}5,5,4,4,6,6,3,3,
{12}E7,E6,E5,E1,E8,E7,E3,E2,E1,E5,E4,E3,
{1}5-7v4[2:1],
{8}5/4,3,2,1,{4}8/1,{8}7,7,
{4}6/2>5[2:1],1,8,7,
6,5<8[2:1],{8}3,3,{4}4,
{8}3,5,3,4,3,2,3,4,
3,6,4,6,4,6,3,5,
2,4,1,5,6,7,2,3,
{16}5/6,,,7/8,,,{8}5/6,{16}4/3,,,1/2,,,{8}3/4,
{16}5/6,,,8/7,,,{8}5/6,{16}4/3,,,1h[16:3]/2h[16:1],,,,,{8}4h[8:3],
,,5,{4}5/4>1[4:1],{16}4,5,{8}5,
{4}4,4/1,5/2,6/3,
7h[4:1],6h[4:1],{8}5h[4:1],,,6,
{4}5,{8}8,7<4[16:3],{4}8,1h[16:3],
{8}5h[8:3],,,4,{4}5/4,5<8[8:3],
{8}5,3,{4}3-8b[8:3],6h[8:1],{8}6,5,
{4}5,5,4h[4:1],{8}5,5/4,
,6/5,{4}6/5,4,3,
{1}2-6-8-4[4:5],
{8},,,,,,,4,
{1}4/5-7v1-3[4:5],
{8}3,,,,,,,6,
{2}5/6,5/4,
4/3,2/1,
{4}8/1,8/7,7/6,5/6,
{1}5/4,
{4}1bx/8bx<5[4:1],{8}4/8,3,{4}2,{8}4/3,2/1,
{16}8,7,6,5,{8}4/3,1/2,{4}8/7,{8}5/6,8/7,
{16}2/1,,,4,{8}3,5/6,{16}8/7,,,5,{8}6,4/3,
{4}2/1-5[8:1],1/8-4[8:1],8/7-3[8:1],8/7,
{16}6/5,,,8/7,,,{8}5/6,{16}4/3,,,2/1,,,{8}4/3,
7/5,7,6/4,4,5/3,5,{16}4,5,{8}3,
{12}8,7,6,2,1,8,4,3,2,6,5,4,
{4}8h[4:1],{8}1,{16}5/4,6/3,{4}7h[8:1]/2h[8:1],{8}6/5,4/3,
,,5/4>1[8:1],5,{4}5/4,{8}8/7,5/6,
{16}4,3,2,1,{8}8/7,5/6,{4}4/3,{8}2/1,4/3,
{16}5/6,,,8,{8}7,6/5,{16}4/3,,,1,{8}2,4/3,
{4}7/8-4[8:1],8/1-5[8:1],1/2-6[8:1],2/1,
{16}4/3,,,2/1,,,{8}4/3,{16}5/6,,,8/7,,,5,6,
4,5,3,4,2,3,{8}1,1/3,1/4,1/5,1/6,
{12}8bx,8,8,1bx,1,1,7bx,7,7,2bx,2,2,
{16}5,4,5,4,5,4,5,4,5,4,5,4,6x,4x,7x,4x,
{4}8x,{8}5/6,4/3,{4}2/1,{8}4/3,5/6,
{16}3,4,2,6,5,7,3,4,2,6,5,7,{8}3,3,
{16}5/6,,,8/7,{8}7,5/6,{16}4/3,,,1/2,{8}2,4/3,
{4}6/5-1[8:1],5/4-8[8:1],4/3,{8}6/5,8/7,
{16}2/1,,,4/3,,,{8}2/1,{16}8/7,,,5/6,,,{8}8/7,
5/6,4,3/5,3,6/4,6,5/3,3,
{12}7bx,7x,7x,8bx,8x,8x,1bx,1x,1x,2bx,2x,2x,
{4}5/4,{16}5/4,6/3,{8}7/2,,,5/6<1[8:1],5,
{4}5/6,{8}4/3>8[8:1],4,{4}4/3,{8}6/5,6,
{16}3,4,2,6,5,7,3,4,2,6,5,7,{8}4,4,
{16}1/2,,,3/4,{8}3,1/2,{16}8/7,,,5/6,{8}6,8/7,
{4}2/1-5[8:1],1/8-4[8:1],8/7-3[8:1],7/8,
{16}5/4,,,3/2,,,{8}5/4,{16}8/1,,,7/6,,,{8}8/1,
6/1,5,6/2,5,6/3,5,6/4,5,
{16}7,8,{8}6,4/3,2/1,4/3,2/1,{16}3,4,{8}2,
6/5,{16}3,4,{8}2,{16}6,5,8,3,4,1,6,5,8,3,
{8}4,{16},,,,,,,,,,,,B5,B4,
{1}B3,
E
