&title=カワキヲアメク
&artist=美波
&first=0
&des=MYOU
&lv_5=13
&inote_5=(129)
{1},
{32},,,,,,,,,,,,,,,,,,,,,,,,,,5/3-5[75#32:5],,,,,,,,,,,,,,,,,,,,,,,,,,,,,4/6-4[75#32:5],,,,,,,,,,,,,,,,,,,,,,,,,,,,,,6/3<6[75#32:5],,,,,,,,,,,,,,,,,,,,,,,,,,,,,,3/6>3[75#32:5],,,,,,,,,,,,,,,1,,,,,,,,2,,,,,,,,3<7[75#64:17]/4,,,,,,,,,,,,,,,7>4[75#32:9],,,,,,,,,,,,,,,6,,,,,,,,5-1[75#2:1],,,,,,,,,,,,,,,,,,,,,,,,,,,,,,,,,,,,,,,,
{4}5,5,5,46,
{16}25,25,,1,,57,,48,,2,,8,1,,78,,
15,15,,8,,57,,48,,2,,7,8,,15,,
{16}37,37,,18,,57,,35,,28,,{32}1,8,{16}1,,27,,
4/5b-1[2:1]*-1[2:1],,36,,,4,,,3,,,2,,,,,
{16}48,,,48,,,4/8<5[8:1],,,,3,,,,1,,
15,,,15,,,1>4[8:1]/5,,,,7-5[8:1],,,,74,,
{16}2v5[8:1],,2,,5,,6,,7,5,7,5,,3,4,,
25,25,,2,6,3,7,4,8,3,1>4[8:1],,,,8,,
{16}7,,6,,35,,2-4[8:1]/4,,,,6v1[8:1],,,,4>1[8:1],,
,,8,,7,,6,,25,,6,,36,,3,,
{16}4/5p4[8:3],,,,,,,,,,,,,,,,
4,,,45,,,26,,,,18,,1,6,2,5,
{16}4h[16:3],,,3h[16:3],,,1v3[8:1],,1,,7V51[16:3],,7,,1,,
2,,3,,48,,6,2,,4,7,,28,,35,,
{16}2,6,4,6,1,5,3,5,,47,,18,,,2,1,
2,38,,7,4,5,3,8,2,4,1-5[8:1],,,,6,,
{16}7>2[8:1],,7,,4,,4>1[8:1],,,,5/4<7[8:1],,,,4/2V48[16:3],,
,,8,,7,,6,,15,,26,,37,,4h[4:1]/8<5[8:1],,
{16},,8,,2,,1,4,2,5,1,,37,,1b,,
,,,,,,,,5-1[8:1],,,,4>5[4:1],,,,
{16}8h[8:3],,,,,,,,8v5[8:1],,8,,4v1[8:1],,4,,
5>2[8:1]*<8[8:1],,5,,,,,,,,37,,6,2,4,1,
{16}8,,57,,1,,24,,8,,4>5[8:3]/5<4[8:3],,27,,4b/5b,,,,,,,,,,1>4[8:1]/8<5[8:1],,,,18,,,,
{16}2b/7b,,3,4,1,,6,5,8,1V35[8:1],7,8,,5,,,
8b,,3,5,1,,6,4,8,2>6[8:1],7,1,,5,,,
{16}8,8,1,5,2,6,4,8,5-2[8:1]*-8[8:1],,37,,,,,,
{32}81,2,,,7,6,,,2,3,,,6,5,,,{16}1,5,3,8,5,,3<5[8:1]/6,,
{8}1,37,8,3/6>4[8:1],1,2/6,1,8v5[8:1]*v3[8:1],
62,,,64,8v5[8:1]/2v5[8:1],1,,,
{8}6/4>1[8:1],3,46,7,1/8qq8[4:1],7,1/8>7[4:1],2,
4b,,,{16},4,8/4h[16:3],,,7,3/7h[16:3],,,1,
{16}7,3,8,2,4,1,6,5,8,,47,,,7,5,6,
1,,25,,,1,4,3,8,,57,,,8,4,5,
{8}2-6[8:1]*-5[8:1],14,,,7v4[8:1]*q3[8:1],68,,,
2/6h[8:1],8,3>8[8:1]/7<4[8:1],1,3b/7b,,1v3[8:1]/5pp7[8:1],,
{8}1b/5b,,,7h[8:1]/1,5h[8:1],4h[8:1],2h[8:1],1,
{32}2/1-4[8:3],8-5[8:3],7,,{8},,,,,,,
{8}6/3h[2:3],,,,4,4,,5-7[8:1],
,,,{16}7,6,{8}5,3,35,,
{8}4/2h[1:1],,,,3,3,,1,
1<5[4:1],,,,{16}3,3,{8}4,,,
{8}3/6h[2:3],,,,5,5,,4>2[8:1],
,,,{16}2,3,{8}4,6,64,,
{8}5/7h[1:1],,,,6,6,,8,
8>5[4:1],,,,{16}7,7,5,,6,6,4,,
{8}4-8[4:3]*-8[4:3]/5,,3,3,5,5,2,2,
1,1,1h[8:1]/7,7,3/8h[8:1],3,2h[8:1]/6,6,
{16}37,37,,,,,26,2>4[8:1]/6<8[8:1],,,,,,,,,
{12}84,3,6,51,2,7,8w4[8:1]/4,,,8,,,
{16}7b/3b,,2,5,8,,7,4,1,2V46[8:1],7,1,,6,,,
8b,,2,4,8,,7,5,1,2>6[8:1],6,1,,4,,,
{16}8,8,2,5,1,7,4-1[8:1],1,4-7[8:1],,6,,,,{32}1,2,,,
7,6,,,2,3,,,6,5,,,1,,6,,{16}5,8,2,4,1,,6>4[8:1]/3,,
{8}8,62,1,6/3<5[8:1],8,63,7-4[8:1],8/1-5[8:1],
2/7b,1b,7<4[8:1],8/1-5[8:1],7b/2,1b,7,4/8qq6[8:1],
{8}37,18,2,8/4qq5[4:1],37,4/5<4[4:1],6,8b,
,,6V48[8:1],,1w5[8:1],,1,,
{16}2b/7b,1,8,1,6,3,45,,1,4,3,,8,6,7,,
1b/5b,2,4,3,8,5,6,1,4,3,8,1,26,,7-5[8:1]/4v1[8:1],,
{16}38,,7b/4b,,,,5v8[8:1]/2>5[8:1],,71,,5b/2b,,,,8,,
64,,2,,5<8[8:1]/1>4[8:1],,84,,5b/1b-5[8:1],,,,1b/4b>5[4:1],,,,
{16}4b/8b,,,,,,27,,4,5,3,6,{12}4,35,26,
{16}7/1h[8:3],,8,,4,,5,,3b/7b,,,,{24}3,4,5,6,7,8,
{8}1/5qq1[8:3],6,8h[1:1],
