&title=ANDORXOR
&artist=sobrem
&first=-0.9199994
&lv_5=14
&des_5=SUY
&inote_5=
(148){4},,,,6/3h[4:1],
{16}5,,,6,{4}4,{16}5/4h[16:3],,,6,
{4}4/5h[8:1],3/6h[4:1],{8}4,{24}5,4,5,{32}3,,,4,,,{16}5,
{2}6/4h[4:1],3/5h[4:1],
3/6h[4:1],6/3h[4:1],
{4}3/6h[4:1],4,{12}5,3,6,4/5h[16:3],{48},,,,,{16}3,
{4}5/4h[8:1],{16}6/3h[16:3],,,5,4/6h[16:3],,,4,6,,,2,
{4}8/1,{12}C,{24}A8,A7,A6,A5,{32}A1,E2,{64},B2,,,,,{32}B3,{64}E4,,,A4,,,,A7,{192},,,,,,,,{48}B7,{192},,,{64}C,,,{16}B3,
{4}A3,1,2/8,{16}3,7,4,6,
{4}5h[4:1],{16}7,5,6,5,7,1,8,1,7,4,5,4,
7,2,1,2,7,3,4,3,7,3,2,3,7,3,3,3,
{4}4h[4:1],{16}2,4,3,4,2,8,1,8,2,5,4,5,
2,7,8,7,2,6,5,6,2,6,7,6,2,6,6,6,
{4}4h[4:1],{16}6,4,5,4,6,8,7,8,6,3,4,3,
6,1,8,1,6,2,3,2,6,2,1,2,6,2,2,2,
{4}5h[4:1],{16}3,5,4,5,3,1,2,1,3,6,5,6,
3,8,1,8,3,7,6,7,3,7,8,7,3,7,7,7,
{4}5h[4:1],{16}7,5,6,5,8,4,5,4,1,3,4,3,
8,4,5,4,{24}8,7,6,4,3,2,{16}5,1,8,1,{24}7,6,5,3,2,1,
{4}4h[4:1],{16}2,4,3,4,1,5,4,5,8,6,5,6,
1,5,4,5,{24}1,2,3,5,6,7,{16}4,8,1,8,{24}2,3,4,6,7,8,
{4}5h[4:1],{16}7,5,6,4,8,4,5,3,1,3,4,2,
8,4,5,3,{24}6,5,6,3,4,3,{16}5,1,8,2,{24}7,8,7,2,1,2,
{4}7bx-4[8:1]/1bx-4[8:1],7bx/1bx,3b-8[8:1]/5b-8[8:1],3b/5b,
1>5[8:1]/5<1[8:1],1v3[8:1]/5v7[8:1],,2xh[8:11],
{16}8x,7xh[32:1],6xh[32:1],5xh[32:1],8x-6-1-5-1-6-8[1:1],7xh[32:1],6xh[32:1],5xh[32:1],{2}8b,
{8},,3,2,1,2,3/8,7,
{16}1x/6h[4:5],2xh[32:1],3xh[32:1],4xh[32:1],1x-3-8-4-8-3-1[1:1],2xh[32:1],3xh[32:1],4xh[32:1],{2}1b,
{8},,,,6,7,8/2,3,
{16}8x/4h[8:9],7xh[32:1],6xh[32:1],5xh[32:1],8x-6-1-5-7-4-8[1:1],1xh[32:1],2xh[32:1],3xh[32:1],{2}8b,
{8},,1,2,3,2,1/7,6,
{16}1x/5h[4:3],2xh[32:1],3xh[32:1],4xh[32:1],1x-3-8-4-2-5-1[1:1],8xh[32:1],7xh[32:1],6xh[32:1],{2}1b,
{8}5h[4:1],{16},,,,6,7,{4}8b-4b[8:1],A8f,
{16}5x/3xh[2:1],6xh[32:1],7xh[32:1],8xh[32:1],5xh[32:1],6xh[32:1],7xh[32:1],8xh[32:1],1,3,,8/3,,1/6,{32},,8,7,
{16}8,6,,1/6,,8/3,{32},,1,2,{20}8x,7x,6x,5x,4x,1x,2x,3x,4x,5x,
{16}8xz4[8:1],7xh[32:1],6xh[32:1],5xh[32:1],,,,,2x,4x,3x,7,5,6,1,3,
2,8,6,7,5,6,4,5,3h[16:3],,,4,2,4,1,4,
8x/5xh[8:3],1xh[32:1],2xh[32:1],3xh[32:1],{4}4xh[8:1],{16}5,4,8,1,6,5,8,1,
4,3,8,1,5,4,8,1,{8}8<6[8:1],1,{4}2/8,
{16}1x/6xh[4:1],2xh[32:1],3xh[32:1],4xh[32:1],{8}5b,{24}5,6,5,{16}6,4,,6/4,,5/3,,4,
{8}2h[8:1],{16}3,2,4,3,5,4,{8}6b,{24}6,5,6,{16}5,6,4,5,
{2}3,{32}2/5x,3,4,5,6,7,8,1,6x/2h,3h,4h,5h,6h,7h,8h,1h,
2/5x,3,4,5,6,7,8,1,6x/2h,3h,4h,5h,6h,7h,8h,1h,{12}2b/5b,4,3,2/5-1-6-8[2:1],3,4,
{2}5/2,{32}2,3,4,5,6,7,8,1,6x/2h,3h,4h,5h,6h,7h,8h,1h,
2/5x,3,4,5,6,7,8,1,6x/2h,3h,4h,5h,6h,7h,8h,1h,{8}2b-4-1-5b[8:5],5b-8-6[8:3],{4},,,{32}7/4x,
6,5,4,3,2,1,8,3x/7h,6h,5h,4h,3h,2h,1h,8h,
7/4x,6,5,4,3,2,1,8,3x/7s3s7[8:3],6h,5h,4h,3h,2h,1h,8h,{2}7b/4b,
{4}4h[4:1]/6h[8:1],{96}6x,,,,,4x,,,,,{48}6x,{96},,,{32}4x,{96},,{24}6x,{2}3h[4:1],
{4}5h[4:1]/3h[8:1],{96}3x,,,,,5x,,,,,{48}3x,{96},,,{32}5x,{96},,{24}3x,{2}6h[4:1],
{8}B1,B2,B3,B4,{32}7/4x,6,5,4,3,2,1,8,3x/7h,6h,5h,4h,3h,2h,1h,8h,
7/4x,6,5,4,3,2,1,8,3x/7h,6h,5h,4h,3h,2h,1h,8h,{16}7,4,,6/5,,3/4,{32},,7x,6x,
{12}5/3,4,5,4/6,5,6,{32}7/4x,6,5,4,3,2,1,8,3x/7h,6h,5h,4h,3h,2h,1h,8h,
7/4x,6,5,4,3,2,1,8,3x/7h,6h,5h,4h,3h,2h,1h,8h,{8}7b-5-8-4b[8:5],4b-1-3[8:3],{16},,,,,,,,,,,,1>4[4:1],
,,B5,{32},,,B7,,,,,{8}8<5[4:1],
E5,{16},E3,,,2pp4[4:1],,,E1,{32}B8,,,B6,,,,,{2}7>5[2:3],
2,
{1}4h[2:1],
{4}5/3h[4:1],{12}4,3,{24}5,4,{16}6,8,7,1,8,2,1,3,
{2}4h[4:1]/5h[4:1],{4}6/3h[4:1],{16}4,3,5,4,
{2}6pp2[4:9],4h[2:1],
{4},3,{2}2,
{1}1h[2:3],
{2}3h[4:1],{8}3,4,5/1,6,
{16}7/1pp5[4:9],,,,,,,7,{2}7h[2:1],
{8},7,7,7,6,6,5,4,
{1}4h[1:1],
{16}6,7,8,1,4,5,6,7,{4}2-5[8:1]/8-5[8:1],2/8,
5x/6xh[4:1],{16}5,6,8,7,4,5,,5,{8}3,{16}3,4,
{24}3,4,3,4,3,4,{4}3h[4:1],{16}4,2,1,2,5,2,1,2,
{4}1x/2xh[4:1],{16}1,2,4,3,8,1,,1,{8}7,{16}7,8,
{24}7,8,7,8,7,8,{4}7h[4:1],{16}8,6,5,6,1,6,5,6,
{4}2h[4:1],{16}5h,4h,6h,4h,5h,3h,6h,5h,7h,3h,4h,2h,
7h,8h,6h,2h,1h,3h,8h,1h,7h,1h,8h,2h,6h,3h,{8}7h,
{20}8,4,8,4,8,4,8,4,8,4,7,3,7,3,7,3,7,3,7,3,
6,2,6,2,6,2,6,2,6,2,5,1,5,1,5,1-7-2-6-3-5b[1:1],5,1,5,1,
{1}5b,
Ch[4:3],
{48}1h[8:1]/8xv3[8:1],7,6,5h[16:3],,,,,,,,,{4}8,{48}5h[8:1]/4xv7[8:1],3,2,1h[16:3],,,,,,,,,{4}4,
{48}8h[8:1]/1xv6[8:1],2,3,4h[16:3],,,,,,,,,{4}1,{48}4h[8:1]/5xv2[8:1],6,7,8h[16:3],,,,,,,,,{4}5,
{48}2xh/1xh,3xh/8xh,4xh/7xh,5x/6xh[16:3],,,,,,,,,{16}5,6,6,6,{48}6xh/5xh,7xh/4xh,8xh/3xh,1x/2xh[16:3],,,,,,,,,{16}1,2,2,2,
{48}2xh/1xh,3xh/8xh,4xh/7xh,5x/6xh[16:3],,,,,,,,,{16}5-3-7-1[4:1],6,6,6,{2}5,
{4}2h[8:1]/8bh[4:1],{96}2x,,,,,8x,,,,,{48}2x,{96},,,{32}8x,{96},,{24}2x,{2}7bh[4:1],
{4}7h[8:1]/1bh[4:1],{96}7x,,,,,1x,,,,,{48}7x,{96},,,{32}1x,{96},,{24}7x,{2}2bh[4:1],
{16}8bh,1bh,,8b,{4}1b,{32}7/2x,6,5,4,3,2,1,8,3x/7h,6h,5h,4h,3h,2h,1h,8h,
2/7x,3,4,5,6,7,8,1,6x/2h,3h,4h,5h,6h,7h,8h,1h,{16}2,5,,3/4,,6/5,{32},,2x,3x,
{12}4/6,5,4,5/3,4,3,{32}2/7x,3,4,5,6,7,8,1,6x/2h,3h,4h,5h,6h,7h,8h,1h,
7/2x,6,5,4,3,2,1,8,3x/7h,6h,5h,4h,3h,2h,1h,8h,{8}7b-5-1-6b[4:3],4b-2-5[2:1],{4},,,{32}4x,
3,2,1,8,7,6,5,7x/4h,3h,2h,1h,8h,7h,6h,5h,
{4}4b-1[8:1]/7b-4[8:1],4b/7b,1-4[8:1]/6-1[8:1],1/6,
{48}4xh/8xh,3xh/7xh,2xh/6xh,1xh[16:3]/5xh,,,,,,,,,{16}4,1,5,8,{48}1xh/5xh,2xh/6xh,3xh/7xh,4xh[16:3]/8xh,,,,,,,,,{16}1,4,8,5,
{8}7/4,4/7,6/3,6/3,5/2,4/1,3/8,2/7,
{24}1,8,2,7,3,6,{64}4,,,5,,,{32}4,{64},,,5,,,,,{2}4bh[1:4]/5x>4<5-7>8<7-4-1-5<6[4:13],
E
