&title=Lunatic Princess
&artist=RichaadEB
&first=1.13
&des_5=砂糖Cafe
&lv_5=13+
&des=砂糖Cafe
&inote_5=(128){4},,,,4/6,
2/8w4[8:1],{2}8/B8/B4`Cf,
7/2,{8}4/5,,,3/7,
{4}2/8-5[8:1],{8}3,2,{4}1-4[8:1],{8}5,6,
7,8,1,2,{4}4/3,1/8,
5/6,{8}1w5[8:1],2/8,{2}1,
(138){4}4/2,3,{8}6/4>1[8:1],,,7,
{4}8,{8}1-5[8:1]/8-4[8:1],2/7,{4}1/8,{8}6/5,7,
4/3,2,6/4>6[0.4348##0.6164],8,(146){4}4/2,{8}4b,4b,
(154){16}4,5,4,5,3,6,4,5,2x,7,2,7,2,7,2,7,
1x,8,1,8,1,8,1,8,3x,4,3,4,3,4,3,4,
2x,5,2,5,2,5,2,5,1x,8,3,4,1x,8,5,6,
3x,7,3,7,3,7,3,7,2x,6,2,6,1x,5,1,5,
2x,4,2,4,3,4,3,4,1x,8,2,7,1,8,2,7,
1,8,1,8,1,8,1,8,5x,6,4,7,5,6,4,7,
5,6,5,6,5,6,5,6,4,7,3,8,2,7,1,6,
2,7,3,8,{24}2x,1x,2x,1x,,,4x,5,4,5,3x,6,3,6,4x,5,4,5,
{16}3bx,4bx,2bx,6bx,5bx,7bx,3b,4b,{4}1b>4[8:1],5,
6<1[8:1],3,5>2[8:1],{8}7,1-5[8:1],
{4}1,{8}4,3,{4}6/2,{8}7-4[8:1],7,
2-5[8:1],2,8-4[8:1],8,{4}8/1-5[8:1],1/7w3[8:1],
7,{16}1,8,1,8,{8}1,2/4,5,2/4,
1,3/5,7,3/5,2,6/4,8,6/4,
3,5/7,1,5/7,4,3/5,2,3/1,
8,1/7,6,7/5,{16}3,5,2,8,3,6,5,7,
3,4,1,6,5,8,4,7,{4}3>8[8:1],4,
5<8[8:1],1,1>4[8:1],{8}7,8,
{4}8-5[8:1],{8}4,3,{4}2/6,{8}7-4[8:1],7,
1-5[8:1],1,8-4[8:1],8,{4}8/2-6[8:1],2/7w3[8:1],
7,{16}4,5,4,5,4,5,1b,6,5,6,1b,6,
5,6,1b,6,5,6,1,8,1,8,1,4,3,4,1b,4,
3,4,1b,4,3,4,1b,4,3,4,2,8,2,8,5,6,
5,6,1,7,1,7,3,5,{24}4x,6,4,6,4,6,3x,5,3,5,3,5,
{16}3bx,4bx,{8}2bx,{16}6bx,5bx,7bx,4b,{4}8b-4[1:1],2,
2,2-4b[8:1],{8},,5,6/4,
{16}3,4/3,,,4,5,4,5,{8}2h[4:1],3,7h[4:1],6,
1h[4:1],2,8h[4:1],7,4h[4:1],3,5h[4:1],6,
3h[4:1],2,6h[4:1],7,1h[4:1],2,8h[4:1],7,
3h[4:1],4,5,2/6,,7-4[8:1],7,2-5[8:1],
2,8,8,1,2h[8:1],6h[8:1],3h[8:1],7h[8:1],
4h[8:1],8h[8:1],3h[8:1],7h[8:1],2h[8:1],5h[8:1],1h[8:1],6h[8:1],
8h[8:1],7h[8:1],1h[8:1],8h[8:1],2h[8:1],7h[8:1],3h[8:1],6h[8:1],
4h[8:1],5h[8:1],4,3/6,,2-6[8:1],2,7h[8:3],
,4,3,6/2,{16}1,7,1,7,2,8,2,8,
3,6,3,6,4,7,4,7,2,8,2,8,1,7,1,7,
3,6,3,6,2,5,2,5,1,7,1,7,2,8,2,8,
3,6,3,6,{8}4b,7/5,,4/6,3/5,2/4-8[8:1],
2,1,1,7,{16}2,8,2b,8,1,7,1b,7,
2,6,2b,6,3,7,3b,7,4,8,4b,8,3,7,3b,7,
2,6,2b,6,1-4b[8:1]*p6[8:7],5,1,5,{2}1b,
{24},,,,,,,,,,,,4x,5,4,5,4,5,3x,6,3,6,3,6,
2x,7,2,7,2,7,1x-5[8:1],8,1,8,1,8,{2}1b,
{4}4/6-1[8:1],2/6,5/1-6[8:1],4/1,
{8}3,2,1,8,7>2[8:1],6,{4}5/7,
4/3-8[8:1],7/3,4/8-3[8:1],{8}5,6,
7,8,1,{16}2,4,3,5,4,6,{8}5,7,
1/6-1[8:1],3,6/4,2,8/3-8[8:1],6,5/3,7,
1-6[8:1],2,3,4-1[8:1],5,6,{4}7-4[8:1],
2<7[8:1],5>2[8:1],8<5[8:1],{8}4>5[2:1],3,
{4}4/2h[2:1],{16},,,,,,,,3,4,3,4,
2,1,2,1,3,8,3,8,2,1,2,1,3,8,3,8,
4,7,4,7,5,6,5,6,{8}4,5/3,{4}6/2,
{16}7,8,7,8,6,1,6,1,7,8,7,8,6,1,6,1,
5,2,5,2,7,4,6,3,5,2,4,1,6,5,{8}8,
{16}3,4,3,4,2,5,2,5,3,4,3,4,2,5,2,5,
1,6,1,6,8,7,8,7,{8}6,5/7,{4}4/8,
{16}2,1,2,1,3,8,3,8,4,7,4,7,{8}5>6[2:1],4/6,
5/3h[2:1],{16},,,,,,,,4,5,4,5,4,5,
{4}3>8[8:1],3/7<4[8:1],7/2<7[8:1],2/6>3[8:1],
6/2V84[4:1],{8}4-6[8:1],6-2<7[16:5],,,{4}5,
{8}5h[4:1],1h[4:1],,,6h[4:1],2h[4:1],,,7h[8:1],
3h[8:1],8h[8:1],4h[4:1],{4}7h[4:1],{8}4,6,
{4}5/4>1[8:1],4/8<5[8:1],8/3>8[8:1],3/7<4[8:1],
{8}7/2-5[8:1],1,2/8-4[8:1],1,8/2-6>3[4:1],1,{4}2/8,
{8}7h[8:1],2h[8:1],6h[8:1],3h[8:1],8h[8:1],1h[8:1],7h[8:1],2,
{16}1,8,2,7,3,6,4,5,4b,5,,4b,{8}5,{16}4b,5,
3,6,3,6,2,7,2,7,4,5,4,5,1,8,2,7,
3,6,3,4,2,6,5,7,4,6,3,5,2,4,1,8,
2,7,2,7,3,6,3,6,1,8,1,8,4,5,4,5,
3,4,2,6,5,7,3,4,1,8,2,7,3,6,4,5,
3,4,3,8b,3,4,2b,4,2b,4,3,8b,3,4,2b,4b,
{24}3x,5,3,5,3,5,4x,6,4,6,4,6,{16}3b,5b,2b,6b,4b,7b,3b,5b,
1b,7,1,7,3,4,3,4,2,8,2,8,5,6,1,8,
{24}3,4,3,4,2,5,2,5,1,6,1,6,{16}2b,,,7b/3b,,,{8}8b/4b,
{1}5b/1bw5[4:17],
E
