&title=Signal
&artist=rejection (feat. Such)
&first=-0.15
&des=ペースト絵
&lv_5=14
&inote_5=(175){4},Cf,,,,,,,,1<5[2:1],
,,,8>4[2:1],
{8},,,,,,5/A4,
5,6/A3,6,7/A2,7,
{4}8/A1,{8}4/A8,4,3/A7,3,2/A6,2,
{4}1/A5,{8}5/4,5,6,6,4/7,4,
3,3,{24}2x-6[8:1],1x,2x,1x,,,{8}8,8,{24}7xv6[8:1],6x,7x,6x-4[8:1],,,,,,,,,{4}2-5[8:1],
1<6[8:1],4h[4:1],
3,3h[4:1]/8h[4:1],{8},4h[4:1]/7<4[4:1],,,{4}3,
2V84[8:3],{8},6h[8:3],,,{4}5<8[8:1],
5>2[8:1],5-1[8:1],5,
8/2h[4:1],1h[4:1],3,4h[4:1],
3,2h[4:1]/5h[4:1],{8},6h[4:1]/1h[4:1],,,,7,
{4}1h[4:1]/8h[4:1],{8},2,3h[4:1],4<7[8:1],
,2-5[8:1],,1,8,8,7,7,
6,6,{4}5<2[2:1],2,3,
4,5>7[4:3],8,7,
6,5pp1[2:1],4,3,
2-6[8:1],8>3[8:1],4-1[8:1],4/5-8[8:1],
5/2-6[8:1],{8}2/8x,8,7,7,6,6,
5,{16}3,4,{8}2x/5,2,1,1,8,8,
{16}7,5,6,4,{4}5V74[4:1],{8}1,2-6b[8:1],,2/1-5[8:1],
,7/1,,8-4[8:1],6-2b[8:1],8<1[4:1],{4}6,
{8},,4x>2[8:1],5,{4}6,{8}3x>1[8:1],4,
{4}5,{8}2v8[8:1],3,{4}4,{8}1,1,
{4}8/2,{8}5x<7[8:1],4,{4}3,{8}6x<8[8:1],5,
{4}4,{8}1,2/8,3,4/5,{16}6-1[8:1]*-2[8:1],7,{8}5,
{4}6b,{8}1x/2x,2x,2/3,3,3/4,4,
4/5,5,5/6,{16}6,5,{8}7,{16}6,5,{8}8,{16}6-2[8:1],5,
{8}1,6,{16}A3,A4,A5,A6,A7,A8,A1,E3,E4,E5,E6,E7,
E8,E1,E2,E3,{4}4>6[4:1],6xV48[4:1],8xV62[16:3],
1w5[8:1],1,{2}Ch[4:5],
{8},,,,,,,,,,8<2[4:1],
1h[32:1],1h[32:1],1,8>6[4:1],7h[32:1],
7h[32:1],7,1<3[4:1],2h[32:1],2h[32:1],2,8h[32:1],8,
1-4[8:1]/7-4[8:1],A8,{4}1/7,{8}5<3[4:1],4h[32:1],4h[32:1],4,
5>7[4:1],6h[32:1],6h[32:1],6,4<2[4:1],3h[32:1],3h[32:1],3,
5h[32:1],5,{4}6/4>2[8:1],{16}7x-4[8:1],6,{8}5,{4}1>3[8:1],
{16}5x-2[8:1],6x,{8}7x,{4}5-8[8:1],{2}5s1[8:1],
{8}2x-6[8:1]/8x-3[8:1],A7,{4}2/8,{8}4,{16}3,4,{8}2,{16}5,4,
{8}6,{16}3,4,{8}1,{16}5,4,{8}7,{16}3,4,1,5,1,5,
2-5[8:1],6,2,6,{8}2,{16}7,8,{8}6,{16}1,8,{8}2,{16}7,8,
{8}5,{16}1,8,{8}3,{16}7,8,{8}5,{16}1,8,3-7-3[16:3],7,3,7,
,,,,{4}1w5[8:1],1,{8}8,{16}5,6,
{8}4,{16}3,4,{8}2,{16}1,8,2,7,3,6,{8}4,5,
7-3[8:1]/8-4[8:1],6/1,{4}7b/8b,2<8[4:1],8<5[4:1],
5>2[4:1],{8}1,1,8,8,{16}7-3[8:1],1,5,3,
{4}7b,{8}2-6[8:1]/7b-1[8:1],3,{4}2b/7-4[8:1],7b/3-8[8:1],
{8}3b/5-1[8:1],6,{4}2>5[8:1]/5b<8[8:1],2b/5,{8}1b,4b/8b,
{4}7b/3b,{8}7b-3[8:1]/2-8[8:1],6,{4}7b/2-5[8:1],2b/6-1[8:1],
{8}6b/4-8[8:1],3,{4}7<4[8:1]/4b>1[8:1],7b/4b,{8}4bx,5b/1b,
{4}2b/6b,{8}3b-7[8:1]/6-4[8:1],2,{4}3b/6-1[8:1],6b/2-5[8:1],
{8}2b/8-4[8:1],7,{4}3>8[8:1]/8b<5[8:1],3/8b,{8}1b/5x,2b/6x,
{4}3b/7b,{8}2-4<5-1[8:3],7,8,1-5>4-2[8:3],8,7,
6,5x,,5/1,6/2,7/3,{16}8b-4[8:1],6,2,4,
{4}8b,{8}2bv5[8:1]/5-8[8:1],3,{4}5/2b<7[8:1],2b/6v1[8:1],
{8}6b/4-8[8:1],3,{4}4b/7<5[8:1],{8}7b/1,2v4[8:1],4p8[8:1],2,
{4}5b,{8}6bv1[8:1]/1b-4[8:1],5,{4}1b/6>3[8:1],6b/2v5[8:1],
{8}2b/8-4[8:1],7,{4}8b/3>8[8:1],{8}3b/5,6v4[8:1],4q8[8:1],6,
{4}1b,{8}1bv7[8:1],2,{4}3b-5[8:1],3b/8-4[8:1],
{8}8b/3,2,{4}1-6[8:1]*-5[8:1],1b,{8}8bx-6[8:1],6x-1[8:1],
1x-5[8:1],5>7[8:3],{4}3h[2:1],{8},,,,3,
3,{4}5-8[8:1],4,1-4[8:1],
8,3qq5<1[1:4]/6pp4[8:11],,,,,,,,E6,
E5,E4,
,E6,E5,E4,
,2<1pp8<6[1:4],,,,,,,,E6,
E5,E4,
,E7,C,E3,
,3>7pp4pp8[1:4],,,,,,,,E6,
E5,E4,
,E7,C,E3,
,2-8-3-7-4-6[2:3],,,,,,,,8w4[2:3],
,,,,,,,5/3>5[4:3],
,,,E4,
E3,E2,
{1}8z4[4:3],
{4}5,6/4>2[4:1],,4<6[4:1],
,2z6[1:1],,,,,,,7,
6<4[2:1],,4>5[2:1],
,5<3[8:5],,E5,
E4,2<4[4:3],,,,E1,
C,E5,
{1}5s1[4:3],
{4}2,2p4[2:1],,4p6[2:1],
,6<4[1:1],,,,,,4h[2:1],
3,2h[2:1],,8h[2:1],
,6h[2:1],,5p8b[4:1],
,2,2,2/8,
8/2-5[8:1],1-4[8:1],8,{16}6,6,{8}5,
{4}E7/E6,7,7,7/1,
1/7-4[8:1],8-5[8:1],1,{16}3,3,{8}4,
2,3,{4}1,1,1/7,
1/7<4[8:1],8-5[8:1],1,{16}3<5[8:1],5,{8}5-2[8:1],
3,7,{4}8,8,8/2,
8/2>5[8:1],1-4[8:1],8,{24}6v5[8:1],5,6,5<8[8:1],,,{8}6,
4,{4}3-6[8:1],1<6[8:1],5h[4:1],
4,3h[4:1]/6h[4:1],,2h[4:1],
1,8h[4:1]/3h[4:1],,7h[4:1],
4>1[8:1],4<7[8:1],4-8[8:1],4,
1/7h[4:1],{8}E1,7,6/E2,6,5/E3,5,
{4}4/E4,{8}1/A8,1,2/A7,2,3/A6,3,
A5/4>2[8:1],4,{4}5V74[4:1],{8}1,2-6b[8:1],,2/1-5[8:1],
,7,,8-4[8:1],6-2b[8:1],8>7[8:3],
E
