&title=Prismatix
&artist=LASER IMOUTO
&first=0
&lv_5=14.8
&des_5=nomiko
&inote_5=
(200){4},{8},,,,,,2h[8:1],
4,3h[8:1],5,4h[8:1],6,3h[8:1],5,
4h[8:1],6,5h[8:1],7,5-2[8:1],7,5,6,
B2/E2,B5,3x,3,E8/B7,B4,6x,6,
E2/B2,B5,3x,3,4-8[8:1],6,4,6,
7h[8:1],5,6h[8:1],4,5h[8:1],3,6h[8:1],4,
5h[8:1],3,4h[8:1],2,4-7[8:1],2,4,3,
B7/E8,B4,6x,6,E2/B2,B5,3x,3,
E8/B7,B4,6x,6,5-1[8:1],3,5,4,
3x-8[8:1],6,3,5,3xV17[8:1],6,3,5,
8xV24[8:1],5,8,6,8x-3[8:1],5,8,6,
5-7[8:1],4,3/5x,2,1-3[8:1],8,7/1x,6,
5-7[8:1],4,3/5x,2,1,8,7x/3x,6x/2x,
2x/6x-1[8:1],3,6,4,6xV82[8:1],3,6,4,
1xV75[8:1],4,1,3,1x-6[8:1],4,1,3,
{2}B4/E4/B8/E1/A1/E2/A2/D3/A3/B2f,E6/B5/A7/E8/B7/A6/B6f,
B7/B6/B2/B3/Cfh[2:1],B3/B4/E4/B8/B7/E8,
{8}7/4-1[8:1],3,6/4,5h[8:1],{16}8x,7,{8}6,{16}1x,8,{8}7,
1,2,7v4[8:1]/3>8[8:1],4,{4}7b/3b,{16}1x,2,{8}3,
5-8[8:1],6,3/5,4h[8:1],{16}1x,2,{8}3,{16}8x,1,{8}2,
8,7,2v5[8:1]/6<1[8:1],5,{4}2b/6b,{16}8x,7,{8}6,
1x/5x-7[8:1],8h[4:1],{4}5,{16}1x,2,{8}3,{16}2x,3,{8}4,
1,2,7v4[8:1]/3>8[8:1],4,{4}7b/3b,{16}1x/5x,2/6,{8}3/7,
8x/4x-2[8:1],1h[4:1],{4}4,{16}8x,7,{8}6,{16}7x,6,{8}5,
8,7,2v5[8:1]/6<1[8:1],5,{4}2b/6b,{16}8x/4x,7/3,{8}6/2,
4x,5,3/6-2[8:1],7,{16}6/5x,4,{8}3,{16}1x,8,{8}7,
1,2,3v8[8:1]/7<4[8:1],4,{4}3b/7b,{16}5x,6,{8}7,
5x,4,6/3-7[8:1],2,{16}3/4x,5,{8}6,{16}8x,1,{8}2,
8,7,6v1[8:1]/2>5[8:1],5,{4}6b/2b,{24}4x,3,2,8x,7,6,
{4}5b/1bx>4qq6b[2:1],8,{16}8x,7,{8}6,{4}8b,
{8}8bx<5V71b[2:1],1,2v5[8:1],3,{4}2b,{16}4x,3,{8}2,
{4}6/1bxV35v2b[2:1],8,{16}8x,7,{8}6,{4}8b,
6bxh[2:1]/2bxh[2:1],,,{48}D4/A3/E4,A4,D5,A5,D6,A6,D7,A7,D8,A8,D1,A1,
{8}D2/E6f/B5/D6/A5,,,3,,3,,,5h[8:5],
,,4,,3,,,6h[8:5],
,,B4/E5,,B2/E3,,,3h[8:5],
,,B5/E5,,B6/E7,{24},,,,,,E2,
B2,B3,B4,,,,,,{8}6,,5,,,3h[8:5],
,,4,,5,,,6h[8:5],
,,B2/E3,,B4/E5,,,3h[8:5],
,,E7/B7,,B5/E5,{24},,,,,,E2,
B2,B3,B4,,,{8}6h[8:1],5,6h[8:1],4,6h[8:1],3,
6h[8:1],2,2h[8:1],1,2h[8:1],8,2h[8:1],7,
7,6,1/6,2,6/3,7,4/8,3,
{16}2,6,2,6,1,5,1,5,{32}8V24-6b[4:1],1,2,3,{8}4,,,{1}1b,
{2}3h[4:1]/8V64[4:1],2h[4:1],
6h[4:1]/1V35[4:1],7h[4:1],
8h[4:1],1h[4:1],
{4}2b,,,2h[4:1],
{8}7-3[4:1],,,4,,,{4}3,
2-5[8:1],{8}1<4[4:1],1,,,,,{4}1x>4[8:1],
1x-6[8:1],1x,{16}1,2,3,4,
{4}6x,{8}7h[8:1],3h[8:1],6h[8:1],2,{4}1,
1/5,{8}2h[8:1],6h[8:1],3h[8:1],7,{4}8,
8/4,{8}3h[8:1],7h[8:1],2h[8:1],6h[8:1],1h[8:1],5h[8:1],
2h[8:1],6,{4}7/3V52[4:1],6,8w4b[8:1],
8b,6,5,4,
3/8V64[4:1],3,2,2,
6/1V35[4:1],6,7,7,
8/2,1,8/6,7,
8x/1x,2,3,{16}4/7,3,{8}2h[8:1],
7-3[4:1],,,4,,,{4}4-8[8:1],
4/2-5[8:1],{8}1<4[4:1],1,,,,,{4}1x>4[8:1],
1x-6b[8:1],1b,{16}8,1,2,3,
{8}4x/6x,6,7/2h[8:1],7,8/3,7h[8:1],{4}4h[8:1],
{8}6/3,3,2/7h[8:1],2,1/6,2h[8:1],{4}5h[8:1],
{16}3,4,3,5,3,6,3,7,4,8,4,1,{4}4,
{32}5b,4x,3x,2x,{8}1x,,,{4}4-8b[8:1],4b,
{16}1,2,{8}3h[8:1],{16}7,8,{8}1h[8:1],{16}5,6,{8}7h[8:1],{16}3,4,{8}5h[8:1],
{16}1<4[4:1],2,3,4,{4}1x/5b,{16}8,1,2,3,{4}6x/4b-1[8:1],
{16}4/8>5[4:1],7,6,5,{4}8x/4b,{16}1,8,7,6,{4}3x/5b-8[8:1],
{16}5/1,2,3,4,1x/5b,8,7,6,8x/5b,1,2,3,4b/1x>3-7<5[2:1],2,3,4,
{4}5b/1x,4h[8:1],2h[8:1],{16}8bV26-4[8:3],7,6,5,
{8}4/8x,{16},,,,2b,1,8V64-2[4:1],7,6,5,{4}8x/4,
{16}6b,7,{8}8,1<3[4:1],1,,,{4}1-3[8:1]*-4[8:1],
1bx-6[8:1]*-7[8:1],1bx-5b[8:1],1bx,{16}8,7,6,5,
{8}4/8,8,1/5,1,2/6,2,{16}7/2,3,4,5,
{8}1,1,8/4,8,7/3,7,{16}2/7,6,5,4,
8,6,8,6,1,7,1,7,2,8,2,8,3-8V24[4:1],1,3,1,
{4}3,6-2b[8:1],6b,8bx-4<5-1b[4:1],
8bx,{16}6,5,{8}4h[8:1],{16}8,7,{8}6h[8:1],{16}2,1,{8}8h[8:1],
{16}1<4[4:1],2,3,4,{4}1x/5b,{16}1,8,7,6,{4}8x/5b-2[8:1],
{16}5/8>5[4:1],7,6,5,{4}8x/4b,{16}8,1,2,3,{4}1x/4b-7[8:1],
{16}4/1,2,3,4,1x/5b,8,7,6,8x/5b,1,2,3,4b/1x>3-7<5b[2:1],2,3,4,
{4}5b/1x,4bh[8:1],2bh[8:1],{16}8bV26-4b[8:3],7,6,5,
{8}8x/4,{16},,,,2b,1,8V64-2b[4:1],7,6,5,{4}8x/4,
{16}6b,7,{8}8,1/2<5b[8:1],1/2,,,{4}1x-3[8:1]*-4[8:1],
1bx-6[8:1]*-7[8:1],1bx-5b[8:1],1bx,{16}8x/4x,7/3,6/2,5/1,
{8}8/4,8,1/5h[8:1],1,2/6h[8:1],2,{16}1b/7h[8:1],2,3,4,
{8}1/5,1,8/4h[8:1],8,7/3h[8:1],7,{16}8b/2h[8:1],7,6,5,
{8}8/4,8,1/5h[8:1],1,2/6h[8:1],2,{16}1b/7h[8:1],2,3,4,
{8}1/5,1,{4}2/8-2[8:1]*-3[8:1],8bx-6[8:1]*-5[8:1],8bx,
{8}1bx,8,2bx/5h[8:1],1,3bx/6h[8:1],2,{16}1bx/7h[8:1],2,3,4,
{8}8bx/5,1,7bx/4h[8:1],8,6bx/3h[8:1],7,{16}8bx/2h[8:1],7,6,5,
8,4,8,4,1,5,1,5,2,6,2,6,3,7,3,7,
4-1b[8:1]*V28[8:1],8,4,8,4,,,4V61b[16:3],,,,8,,2,3,4,
{8}5h[4:1],2,2,{24}1x,8,7,{8}6,{24}8x,7,6,{8}5,{24}7x,6,5,
4,3,2,1,,,{4}7<4b[8:1],7x/8x-4[8:1]*-3[8:1],8bx,
{8}5h[4:1],8,8,{24}1x,2,3,{8}4,{24}2x,3,4,{8}5,{24}3x,4,5,
6,7,8,1,,,{4}2-6b[8:1],2x/1xw5b[8:1],1bx,
7-3[8:1],7/2>5[8:1],2x/6<1[8:1],6x/B4/B5/E5,
2-6[8:1],2x/7<4[8:1],7x/3>8[8:1],3b,
{24}5x,4,3,2,1,8,7,6,5,2x/4,,,{4}1x-6[8:1],{32}6xh[8:1],E1,B8,B7,{8}E7,
{24}4x,5,6,7,8,1,2,3,4,7x/5,,,{4}8x-3[8:1],{32}4x,E1,B1,B2,{8}E3,
4,4-1[8:1],4,{24}1b/4,8,7,{8}6,{24}8b,7,6,{8}5,{24}7b,6,5,
4,3,2,1,,,{4}4/7<4b[8:1],7x/8x-4[8:1]*-3[8:1],8bx,
{8}5,5-8[8:1],5,{24}1b/5,2,3,{8}4,{24}2b,3,4,{8}5,{24}3b,4,5,
6,7,8,1,,,{4}5/2-6b[8:1],2x/1xw5b[8:1],1bx,
7-3b[8:1],7/2>5b[8:1],2/8-5[8:1]*-3[8:1],8b,
2-6b[8:1],2/7<4b[8:1],7/1-4[0.3##0.15]*-6[0.3##0.15],1b,
{16}5b,7,4,6,3b,5,4,6,1b,7,2,8,3b,1,2,8,
7b,7,7,7,7-2-5-1V37b[2:1],7,7,7,{2}6bxh[2:1],
{8},,5,5-7[8:1],,4V26[4:1],,6V41[4:1],
,5,,8,,7,,,{4}6h[8:3],
{8}2-5[8:1],2,,,,7h[8:3],
,5-2V84[8:3],5,5,,,{4}6b,
3/5h[8:3],{8}4,4-2[8:1],,5V73[4:1],,3V58[4:1],
,4,,1,,2,,,{4}3h[8:3],
{8}7-4[8:1],7,,,,2h[8:3],
,4-7V15[8:3],4,4,,3b,3b,3b,
{4}6/4h[8:3],{8}5,5-7[8:1],,4V26[4:1],,6V41[4:1],
,5,,8,,7,,,{4}6h[8:3],
{8}2-5[8:1],2,,,,7h[8:3],
,5-2V84[8:3],5,5,,,{4}6b,
{16}3,5,3,5,3,5,3,5,3,5,3,5h[8:1],3,2,1,5,
1,6,1,6,1,6,1,6,1,6,1,6h[8:1],1,2,3,6,
3,7,3,7,3,7,3,7,3,7,3,7h[8:1],3,4,5,7,
4,8,3,7,4>8[4:1],8,3,7,{32}4x,A3,D3,A2,D2,A1,D1,A8,{24}7x,6,5,4,,,{1}8b,
E
&lv_7=14.0?
&des_7=Umiyuri Kaiteitan Lover
&inote_7=
(200){4},{8},,,,,,8/1-5[8:1],
2,1/8-4[8:1],7,8/1-5[8:1],2,1/8-4[8:1],7,
8/1-5[8:1],2,1/8-4[8:1],7,8/1-5[8:1],2,1/8-4[8:1],7,
8/1-5[8:1],2,1/8-4[8:1],7,8/1-5[8:1],2,1/8-4[8:1],7,
8/1-5[8:1],2,1/8-4[8:1],7,8/1-5[8:1],2,1/8-4[8:1],8,
8/1-5[8:1],2,1/8-4[8:1],7,8/1-5[8:1],2,1/8-4[8:1],7,
8/1-5[8:1],2,1/8-4[8:1],7,8/1-5[8:1],2,1/8-4[8:1],7,
8/1-5[8:1],2,1/8-4[8:1],7,8/1-5[8:1],2,1/8-4[8:1],7,
8/1-5[8:1],2,1/8-4[8:1],7,8/1-5[8:1],2,1/8-4[8:1],8,
8/1-5[8:1],2,1/8-4[8:1],7,8/1-5[8:1],2,1/8-4[8:1],7,
8/1-5[8:1],2,1/8-4[8:1],7,8/1-5[8:1],2,1/8-4[8:1],7,
8/1-5[8:1],2,1/8-4[8:1],7,8/1-5[8:1],2,1/8-4[8:1],7,
8/1-5[8:1],2,1/8-4[8:1],7,8/1-5[8:1],2,1/8-4[8:1],8,
8/1-5[8:1],2,1/8-4[8:1],7,8/1-5[8:1],2,1/8-4[8:1],7,
8/1-5[8:1],2,1/8-4[8:1],7,8/1-5[8:1],2,1/8-4[8:1],7,
{4}8,1-5[8:1],1,2-6[8:1],
2,3<1[4:1],{2}3,
{8}8/1-5[8:1],2,1/8-4[8:1],7,8/1-5[8:1],2,1/8-4[8:1],7,
8/1-5[8:1],2,8/1,7,{16}1/8,2,3,4,{8}5/8-4[8:1],7,
8/1-5[8:1],2,1/8-4[8:1],7,8/1-5[8:1],2,1/8-4[8:1],7,
8/1-5[8:1],2,8/1,7,{16}1/8,2,3,4,{8}5/8-4[8:1],7,
8/1-5[8:1],2,1/8-4[8:1],7,8/1-5[8:1],2,1/8-4[8:1],7,
8/1-5[8:1],2,8/1,7,{16}1/8,2,3,4,{8}5/8-4[8:1],7,
8/1-5[8:1],2,1/8-4[8:1],7,8/1-5[8:1],2,1/8-4[8:1],7,
8/1-5[8:1],2,8/1,7,{16}1/8,2,3,4,{8}5/8-4[8:1],7,
8/1-5[8:1],2,1/8-4[8:1],7,8/1-5[8:1],2,1/8-4[8:1],7,
8/1-5[8:1],2,8/1,7,{16}1/8,2,3,4,{8}5/8-4[8:1],7,
8/1-5[8:1],2,1/8-4[8:1],7,8/1-5[8:1],2,1/8-4[8:1],7,
8/1-5[8:1],2,8/1,7,{16}1/8,2,3,4,{8}5/8-4[8:1],7,
8/1-5[8:1],2,1/8-4[8:1],7,8/1-5[8:1],2,1/8-4[8:1],7,
8/1-5[8:1],2,8/1,7,{16}1/8,2,3,4,{8}5/8-4[8:1],7,
8/1-5[8:1],2,1/8-4[8:1],7,8/1-5[8:1],2,1/8,7,
{16}8/1,2,3,4,{8}5/8,7,,,1-5[8:1],2,
{1}1,
,,{4},,,{8}1-5[8:1],
2,
{1}1,
,,{4},,,{8}1-5[8:1],
2,
1/8x,8x,8x,8x,8x,8x,8x,8x,
8x,8x,8x,8x,8x,8x,8x,8x,
8x,8x,8x,8x,8x,8x,8x,8x,
8x,8x,8x,8x,8x,8x,8x,8x,
{1}8b,
{2}6x-8[8:1]*-3[8:1],2x-4[8:1]*-7[8:1],
5x-7[8:1]*-2[8:1],1x-3[8:1]*-6[8:1],
7x-5[8:1]*-2[8:1],3x-1[8:1]*-6[8:1],
{1}8x<6[8:1]*>2[8:1],
{8}4x-8[8:1],,,7x<5[8:1],,,{4}1x>3[8:1],
{8}4x-8[8:1],,,1x>3[8:1],,,{4}7x<5[8:1],
1x>4[8:1],5x<8[8:1],{2}2xq3[8:1],
{4}1x-5[8:1],{8}2x-6[8:1],2x,,,3x-7[8:1],3x,
,4x-8[8:1],{4}4x,{8},,5x-1[8:1],5x,
{4}6x-2[8:1],{8}7x-3[8:1],7x,,,8x-4[8:1],8x,
,1x-5[8:1],{4}1x,4x>2[8:1],6x<8[8:1],
{1}1x-5[8:1],
{2}3x-1[8:1]*-6[8:1],7x-5[8:1]*-2[8:1],
4x-2[8:1]*-7[8:1],8x-6[8:1]*-3[8:1],
2x-4[8:1]*-7[8:1],6x-8[8:1]*-3[8:1],
{1}1x>3[8:1]*<7[8:1],
{8}5x-1[8:1],,,2x>4[8:1],,,{4}8x<6[8:1],
{8}5x-1[8:1],,,8x<6[8:1],,,{4}2x>4[8:1],
8x<5[8:1],4x>1[8:1],{2}7xp6[8:1],
{8}1-5[8:1],2,1/8-4[8:1],7,8/1-5[8:1],2,1/8-4[8:1],7,
8/1-5[8:1],2,1/8-4[8:1],7,8/1-5[8:1],2,1/8-4[8:1],7,
8/1-5[8:1],2,1/8-4[8:1],7,8/1-5[8:1],2,1/8,7,
{16}8/1,2,3,4,8/5,7,6,5,{8}4/1-5[8:1],2,1/8-4[8:1],7,
8/1-5[8:1],2,1/8-4[8:1],7,8/1-5[8:1],2,1/8-4[8:1],7,
8/1-5[8:1],2,1/8-4[8:1],7,8/1-5[8:1],2,1/8-4[8:1],7,
8/1-5[8:1],2,1/8-4[8:1],7,8/1-5[8:1],2,1/8-4[8:1],7,
8/1-5[8:1],2,1/8-4[8:1],7,8/1-5[8:1],2,1/8-4[8:1],7,
8/1-5[8:1],2,1/8-4[8:1],7,8/1-5[8:1],2,1/8-4[8:1],7,
8/1-5[8:1],2,1/8-4[8:1],7,8/1-5[8:1],2,1/8-4[8:1],7,
8/1-5[8:1],2,1/8-4[8:1],7,8/1-5[8:1],2,1/8-4[8:1],7,
8/1-5[8:1],2,1/8-4[8:1],7,8/1-5[8:1],2,1/8-4[8:1],7,
8/1-5[8:1],2,1/8-4[8:1],7,8/1-5[8:1],2,1/8-4[8:1],7,
8/1-5[8:1],2,1/8-4[8:1],7,8/1-5[8:1],2,1/8-4[8:1],7,
8/1-5[8:1],2,1/8-4[8:1],7,8/1-5[8:1],2,1/8-4[8:1],7,
8/1-5[8:1],2,1/8,7,{16}8/1b,2,3,4,5/8b,7,6,5,
{8}4/1-5[8:1],2,1/8-4[8:1],7,8/1-5[8:1],2,1/8-4[8:1],7,
8b/1-5[8:1],2,1/8-4[8:1],7,8b/1-5[8:1],2,1/8-4[8:1],7,
8b/1-5[8:1],2,1/8-4[8:1],7,8b/1-5[8:1],2,1/8-4[8:1],7,
8b/1-5[8:1],2,1/8-4[8:1],7,8b/1-5[8:1],2,1/8-4[8:1],7,
8b/1-5[8:1],2,1/8-4[8:1],7,8/1-5[8:1],2,1/8-4[8:1],7,
8b/1-5[8:1],2,1/8-4[8:1],7b,8/1-5[8:1],2,1b/8-4[8:1],7,
8b/1-5[8:1],2,1b/8-4[8:1],7b,8/1-5[8:1],2,1/8-4[8:1],7,
8b/1-5[8:1],2,1b/8-4[8:1],7,8b/1-5[8:1],2b,1/8-4[8:1],7,
8b/1-5[8:1],2,1b/8-4[8:1],7b,8/1-5[8:1],2,1b/8-4[8:1],7b,
8/1-5[8:1],2b,1b/8-4[8:1],7,8/1-5[8:1],2,1b/8-4[8:1],7b,
8b/1-5[8:1],2,1b/8-4[8:1],7b,8/1-5[8:1],2,1b/8-4[8:1],7b,
8/1-5[8:1],2b,1b/8,7,{16}8/1b,2,3,4,5/8b,7,6,5,
{8}4b/1-5[8:1],2,1b/8-4[8:1],7b,8/1-5[8:1],2,1b/8-4[8:1],7b,
8/1-5[8:1],2b,1b/8-4[8:1],7,8/1-5[8:1],2,1b/8-4[8:1],7b,
8b/1-5[8:1],2,1b/8-4[8:1],7b,8/1-5[8:1],2,1b/8-4[8:1],7b,
8/1-5[8:1],2b,{4}1b/8w4b[8:1],{2}8b,
{8}8/1-5[8:1],2,1/8-4[8:1],7,8/1-5[8:1],2,1/8-4[8:1],7,
8/1-5[8:1],2,1/8-4[8:1],7,8/1,2,{16}1/8,7,6,5,
{8}4/1-5[8:1],2,1/8-4[8:1],7,8/1-5[8:1],2,1/8-4[8:1],7,
8/1-5[8:1],2,1/8,7,{16}8/1,2,3,4,8/5,7,6,5,
{8}4/1-5[8:1],2,1/8-4[8:1],7,8/1-5[8:1],2,1/8-4[8:1],7,
8/1-5[8:1],2,1/8-4[8:1],7,8/1-5[8:1],2,1/8-4[8:1],7,
8/1-5[8:1],2,1/8-4[8:1],7,8/1-5[8:1],2,1/8-4[8:1],7,
8/1-5[8:1],2,1/8-4[8:1],7,8/1-5[8:1],2,1/8-4[8:1],7,
8/1-5[8:1],2,1/8-4[8:1],7,8/1-5[8:1],2,1/8-4[8:1],7,
8/1-5[8:1],2,1/8-4[8:1],7,8/1,2,{16}1/8,7,6,5,
{8}4/1-5[8:1],2,1/8-4[8:1],7,8/1-5[8:1],2,1/8-4[8:1],7,
8/1-5[8:1],2,1/8,7,{16}8/1,2,3,4,8/5,7,6,5,
{8}4/1-5[8:1],2,1/8-4[8:1],7,8/1-5[8:1],2,1/8-4[8:1],7,
8/1-5[8:1],2,1/8-4[8:1],7,8/1-5[8:1],2,1/8-4[8:1],7,
8/1-5[8:1],2,1/8-4[8:1],7,8/1-5[8:1],2,1/8-4[8:1],7,
8/1-5[8:1],2,1/8-4[8:1],7,8/1-5[8:1],2,1/8-4[8:1],7,
{4}8,{8}2x-6[8:1],6x-2[8:1],,7x-3[8:1],,3x,
,2x-6[8:1],6x-2[8:1],2x-6[8:1],,7x-3[8:1],,,{4}2x,
{8}7x-3[8:1],3x-7[8:1],,,,2x,
,7x-3[8:1],3x-7[8:1],7x-3[8:1],,,,,{4}2x,
{8}7x-3[8:1],3x-7[8:1],,2x-6[8:1],,6x,
,7x-3[8:1],3x-7[8:1],7x-3[8:1],,2x-6[8:1],,,{4}7x,
{8}2x-6[8:1],6x-2[8:1],,,,7x,
,2x-6[8:1],6x-2[8:1],2x-6[8:1],,,,,{4}7x,
{8}2x-6[8:1],6x-2[8:1],,7x-3[8:1],,3x,
,2x-6[8:1],6x-2[8:1],2x-6[8:1],,7x-3[8:1],,,{4}2x,
{8}7x-3[8:1],3x-7[8:1],,,,2x,
,7x-3[8:1],3x-7[8:1],7x-3[8:1],{16},,,,,,,,4,
5,4,5,4,5,4,5,4,5,4,5,4,5,4,5,
3,6,3,6,3,6,3,6,3,6,3,6,3,6,3,6,
2,7,2,7,2,7,2,7,2,7,2,7,2,7,2,7,
1,8,1,8,1,8,1,8,1,8,1,8,1,8,1,8,
{1}1b,
E
