&title=dropdead
&artist=Frums
&first=0.07
&des=?! 14+ !?
&clock_count=4
&lv_6=14
&inote_6=(100){4},,,,{48}1/5,
2,3,4,5,6,7,8,1,2,3,4,{64}5,6,7,8,1,2,3,4,5,6,7,8,1,2,3,4,{2}5bh[4:1]/1b>1[1:1],
{16}1,1,1,1,2,2h[8:1],,,{2}3<2[8:7],
{32}2,,,3,,,{16}4,{8}4,4<3[1:1],{16},,,,,,3,3,
3,3,4,4h[8:1],,,{8}5<8[4:1],{24},,,,,,,,,1,1,1,
8,8,8,2/7,,,{8}1/2-4[16:1],1/8-6[16:1],{16}2,1,{8}8,{16}1-5[16:1],,,2/8,
1,7,{8}2,1/8-6[16:1],2/1-5[16:1],{16}8,2,{8}1,{16}2-4[16:1],,,1/8,
2,7,{8}8b>4[4:1],{16},3b<7[4:1],,,6b<1[16:3],,,1b>4[8:1],,,{8}3h[4:1],
{56},,,,,,,5,,6,,7,,8,,1,,2,,3,{336},,,,,,{48}4,5,6,7,8,1,{64}2,3,4,5,6,7,8,1V74[32:5],{8}2bh[4:1],,,{4}3h[16:3],
{16}3,3,{8}3h[16:3],,3h[8:1],{16},3h[8:1],,,3h[8:1],
,,3h[16:1],,3h[8:1],{32},,,,3h[8:1]/B5,B6,{16}E7,{64},,,,3h[8:1]/E1,B8,{32}B7,,,,,{8}3h[16:3]/5x<1[8:5],
{16},,3,3,{4}3h[16:3],{16}3h[8:1],,,4h[8:1],,,{8}5h[8:1],
{16},6,,7x/6h[8:1],,,{8}5h[8:1],{16},4h[8:1],,,{4}3h[16:3]/4x>8[8:5],
{16}6,6,{8}6h[16:3],,6h[8:1],{16},5h[8:1],,,4h[8:1]/7xV13[2:1],,,4h[16:1],
,4h[8:1],,,5h[8:1],,,6h[8:1],,,{8}6,7/6h[8:1],7h[16:3],
{16},6h[4:1],,7,,7,{8}6/7h[8:1],6,{16}5,7,{8}7/6h[8:1],7h[16:3],
{16},6h[4:1],,7,,7,{8}6/7-1[16:1],,3h[8:1],{16}2h[16:3],,,3h[4:1],
,2,,2,{8}3/2h[8:1],3,{16}4,2,{8}2/3h[8:1],{16}2h[16:3],,,3h[4:1],
,2,,2,{8}3/2-7[16:1],4,5,{16}4,4,5,4,,4,
4,5,4,5,{8}4,{32}4-1[16:6],,,4q8[32:11],,,{16}4,,,,,,,,,
{48}
2,7,3,6,4>5b[48:33],5,
{4}
Cf,,,,
{8}
6h[8:1],5h[8:1],
{32}4h[32:3],,,3h[32:3],,,2h[32:2],,1h[16:1],,8,7,6,5,
{48}
4,3,2,
{16}
1,8bv1[4:1],
{24}
E3,E4,E5,E6,E7,,,,,
{8}
,2xb/6xb-4-7-3-8[32:12],,,,2xb-4-1-5b[16:4],,
{16}
,
{48}
8xb,7,6,
{16}
,,
{32}
7,,6,4,5,4,6,,2,,3,5,4,5,3h[16:1],,1,,,8,2-6[16:1],,,7,1,,,6,
{16}
2bV86V41b[16:6],,,,,,,,8bV24V61[16:6],,,,,,8bV25[8:1],,,,,,,,
{24}
3/7h[12:1],,4,6/2h[12:1],,5,3,7,1,5,3,7,
{32}
2b/6,1,8,7,6,5,4,3,2,1,8,7,6,5,4,3,2/6b,5,4,3,2z6[6:1],1,8,7,6h[8:1],,,2b,
{32}
,,,,,8<8[32:7]*>8[32:7],,,,,,,,,,,
{8}
,
{32}
,,1,7h[16:1],,8-4[16:1],6h[16:1],,7,5h[16:1],,,
{8}
2<2[8:3]/8b,,,,8b<1b[8:2],,
{16}
,2bs6[8:1],,,,,,,A8f/E8/E1,,
{32}3,
5,4,5,4,3,2,1,{16}8,{32}7,8,
7,8,1,2,{16}3,{32}5,6,7,8,{16}1,{32}1,8,7,6,{16}5,{32}3,4,{16}3,{32}7,8,7,8,1,2,{16}3,{32}1,2,
1,2,3,4,{16}5,{32}7,8,7,1,{16}6,3,7,1b,{32}1,8,1,2,3,4,{16}5,{32}6,5,6,5,4,3,
{16}2,{32}8,7,6,5,{16}4,{32}4,5,6,7,{16}8,{32}2,1,{16}2,{32}6,5,6,5,4,3,{16}2,{32}4,3,4,3,2,1,
{16}8,{32}6,5,6,4,{16}7,2b,8b,3,{32}7,5,6,4,{16}5,{32}2,1,,1,{16}2,8/3,6,{32}2,4,
3,5,{16}4,{32}7,8,,8,{16}7,1/6,{32}2,4,3,6,5,7,1,8,2,4,3,6,5,7,1,8,{16}2,3/4,
4/5,5/6,{32}1/8,2,3,4,{16}5/6,{32}7,5,6,4,{16}8,{32}2,1,,1,{16}2,8/3,6,{32}2,4,3,5,{16}1,
{32}7,8,,8,{16}7,1/6,{32}2,4,3,7,8,6,2,1,3,7,5,6,3,4,1,8,2,3,4/8,7,6/1,2,3/7,6,
{64}5/2,3,4,5,6,7,8,1,
{16}
2b<4b[6:1]/6,
{32}
,7,1,8,1,8,
{8}
3-7[16:1],,3xbh[8:1],,
{16}
1-5b[16:1],
{32}
,8,2,8,2,8,
{12}
2b<4[6:1],2,2,3-7b[24:1],3,3,
{16}
3b,
{32}
6,8,6,8,6,8,7b,1b,7b,1b,
{16}
8V24[10:1],,,7>5b[8:1],,,6h[16:1],,C,,
{24}
6,5,5,4,4,3,4,5,6,
{12}
5bpp3[5:1],7,7,,2<4[7:1],2,2/4x,,,
{56}
1bs5b[16:1],8,7,6,5,4,3,
{64}
2,1,8,7b/A1f,6,5,,,
{8},
{16}
2h[16:1],4h[16:1],3h[16:1],1h[16:1],5h[16:1],7h[16:1],8h[16:1],6h[16:1],2h[16:1],4h[16:1],1,1-5[16:1]/5,,2-4[32:1]/8-6[32:1],28,,,,
{16}
,
{48}
2,3,4,
{16}
5b/7b,8b,1b,2b/4b,
{48}
3,6,3,6,3,6,
{16}
,
{24}
1,1,2h[24:1]/8h[24:1],,1,1,2h[24:1]/8h[24:1],,1,
{48}
1,8,7,
{6}
6b/3bqq4[8:1],7bqq8[8:1]/3b,7b,
{32}
2b,3,4,5,6,7,8,1,
{24}
5,5,5,3,3,3,
{32}
7b,8b,
{48}
7b,6,5,4,3,2,1,8,7,
{64}
6/3b,4,5,6,
{96}
7,8,1,
2,3,4,
{16}
5b>7>5[4:4]/7bh[8:7],,
{4}
,,,
{8}
,6,6,6h[8:1],5h[8:1],4h[16:1],3,
{32}
2,1/8v1[32:11],,
{20}
D7,B6,C,B2,D3,
{32}
,,,,,,,,,
{32}
6b,5,4,3,2,1,8,7,6,5,4,3,2,1,8,7,
{48}
6/2b,3,4,5,6,7,8,1,2,3,4,5,6,7,8,1b/5b,26,3/7h[48:7],
{8}
,
{32}
2,,2,1,3,,3,,7,,7,8,6,,6,,8h[16:1],,6,1-5[16:1],,,7,2,,,8,3,
{16}
B1f/E1/E2,
{32}
3h[32:1],4h[32:1],3h[32:1],4h[32:1],3h[32:1],4h[32:1],3h[32:1],4h[32:1],3h[32:1],4h[32:1],3h[32:1],4h[32:1],3h[32:1],4h[32:1],2h[32:1],5h[32:1],2h[32:1],5h[32:1],2h[32:1],5h[32:1],2h[32:1],5h[32:1],1h[32:1],6h[32:1],1h[32:1],6h[32:1],8<1[16:3],7,8,7,8b,,,,
{4}
,
{16}
7,68,2,13,
{48}
4,,4,5,,5,4,,4,5,,5,
{48}
4b,3,2,1,8,7,6,5,4,3,2,1,
{40}
8,7,6,5,4,
{32}
3,2,1,8,
{24}
7b,6,5,4,3,2,
{24}
1,7,5,3,1,7,
{8}
5b-1[16:1],2-4[20:1]/8-6[20:1],,,
{32}
3,5,,6,4,,2,5,,7,4,,
{32}
6b/5b,4,3,2,1,8,7,6,5/4,3,2,1,8,7,6,5,
{48}
4b/3b,2,1,8,7,6,5,4,3,2,1,8,6b,5,4,3,2,1,8,7,6,5,4,3,
{16}
8s4[8:1]/2,,,,,,
{4}
8b-4b[16:11]*s4[16:11],
