&title=夜明けまであと3秒
&artist=BNSI(Taku Inoue)「シンクロニカ」より
&first=0.11
&des=Ryutasu
&lv_7=宴
&inote_7=(177.0){4},,,,{12}6,7,8,4,3,2,5/1-5[6:1],,,1h[8:8]b,,,
{12}7,8,1x,3,2,1x,7,8,1x,3,2,1x,
{12}5,6,7,3,2,1,4/8-4[6:1],,,8h[8:8]b,,,
{12}6,7,8x,2,1,8x,6,7,8x,2,1,8x,
{12}6,7,8,4,3,2,5/1-5[6:1]*-5[6:1],,1,1h[8:6]b,,,
{12}7,8,1x,3,2,1x,6,7,8h[8:6]b,2,1,8x,
{12}6,7,8x,2,1,8x,5,6,7h[6:1]bx,1,2,3h[6:1]bx,7,8,1h[6:1]bx,2,3,4h[12:1]bx,8>2v3<5[2:1]b,,,,,,
{12},,,,,,(182.0)7,{995}6,,,,,,,,,,,,,,,,,,,,,,,,,,,,,,,,,,,,,,,,,,,,,,,,,,,,,,,,,,,,,,,,,,,,,,,,,,,,,,,,,,,{12}5h[6:1],2,{995}3,,,,,,,,,,,,,,,,,,,,,,,,,,,,,,,,,,,,,,,,,,,,,,,,,,,,,,,,,,,,,,,,,,,,,,,,,,,,,,,,,,,{12}4h[6:1],
{12}5b<6-8[8:1],,2,2,{995}3,,,,,,,,,,,,,,,,,,,,,,,,,,,,,,,,,,,,,,,,,,,,,,,,,,,,,,,,,,,,,,,,,,,,,,,,,,,,,,,,,,,{12}4h[8:8]b,6,{995}5,,,,,,,,,,,,,,,,,,,,,,,,,,,,,,,,,,,,,,,,,,,,,,,,,,,,,,,,,,,,,,,,,,,,,,,,,,,,,,,,,,,{12}4x,2,{995}3,,,,,,,,,,,,,,,,,,,,,,,,,,,,,,,,,,,,,,,,,,,,,,,,,,,,,,,,,,,,,,,,,,,,,,,,,,,,,,,,,,,{12}4x,
{12}6,{995}5,,,,,,,,,,,,,,,,,,,,,,,,,,,,,,,,,,,,,,,,,,,,,,,,,,,,,,,,,,,,,,,,,,,,,,,,,,,,,,,,,,,{12}4x,2,{995}3,,,,,,,,,,,,,,,,,,,,,,,,,,,,,,,,,,,,,,,,,,,,,,,,,,,,,,,,,,,,,,,,,,,,,,,,,,,,,,,,,,,{12}4x,7,{995}6,,,,,,,,,,,,,,,,,,,,,,,,,,,,,,,,,,,,,,,,,,,,,,,,,,,,,,,,,,,,,,,,,,,,,,,,,,,,,,,,,,,{12}5h[6:1],2,{995}3,,,,,,,,,,,,,,,,,,,,,,,,,,,,,,,,,,,,,,,,,,,,,,,,,,,,,,,,,,,,,,,,,,,,,,,,,,,,,,,,,,,{12}4h[6:1],
{12}5<6-8[8:1],,3,3,{995}2,,,,,,,,,,,,,,,,,,,,,,,,,,,,,,,,,,,,,,,,,,,,,,,,,,,,,,,,,,,,,,,,,,,,,,,,,,,,,,,,,,,{12}1h[8:8]b,7,{995}8,,,,,,,,,,,,,,,,,,,,,,,,,,,,,,,,,,,,,,,,,,,,,,,,,,,,,,,,,,,,,,,,,,,,,,,,,,,,,,,,,,,{12}1x,3,{995}2,,,,,,,,,,,,,,,,,,,,,,,,,,,,,,,,,,,,,,,,,,,,,,,,,,,,,,,,,,,,,,,,,,,,,,,,,,,,,,,,,,,{12}1x,
{12}7,{995}8,,,,,,,,,,,,,,,,,,,,,,,,,,,,,,,,,,,,,,,,,,,,,,,,,,,,,,,,,,,,,,,,,,,,,,,,,,,,,,,,,,,{12}1x,3,{995}2,,,,,,,,,,,,,,,,,,,,,,,,,,,,,,,,,,,,,,,,,,,,,,,,,,,,,,,,,,,,,,,,,,,,,,,,,,,,,,,,,,,{12}1x,6,{995}7,,,,,,,,,,,,,,,,,,,,,,,,,,,,,,,,,,,,,,,,,,,,,,,,,,,,,,,,,,,,,,,,,,,,,,,,,,,,,,,,,,,{12}8h[6:1],3,{995}2,,,,,,,,,,,,,,,,,,,,,,,,,,,,,,,,,,,,,,,,,,,,,,,,,,,,,,,,,,,,,,,,,,,,,,,,,,,,,,,,,,,{12}1h[6:1],
{12}8<7-5[8:1],,3,3,{995}2,,,,,,,,,,,,,,,,,,,,,,,,,,,,,,,,,,,,,,,,,,,,,,,,,,,,,,,,,,,,,,,,,,,,,,,,,,,,,,,,,,,{12}1h[8:4]b,7,{995}8,,,,,,,,,,,,,,,,,,,,,,,,,,,,,,,,,,,,,,,,,,,,,,,,,,,,,,,,,,,,,,,,,,,,,,,,,,,,,,,,,,,{12}1x,3,{995}2,,,,,,,,,,,,,,,,,,,,,,,,,,,,,,,,,,,,,,,,,,,,,,,,,,,,,,,,,,,,,,,,,,,,,,,,,,,,,,,,,,,{12}1x,
{12}6,{995}7,,,,,,,,,,,,,,,,,,,,,,,,,,,,,,,,,,,,,,,,,,,,,,,,,,,,,,,,,,,,,,,,,,,,,,,,,,,,,,,,,,,{12}8h[8:4]b,2,{995}1,,,,,,,,,,,,,,,,,,,,,,,,,,,,,,,,,,,,,,,,,,,,,,,,,,,,,,,,,,,,,,,,,,,,,,,,,,,,,,,,,,,{12}8x,6,{995}7,,,,,,,,,,,,,,,,,,,,,,,,,,,,,,,,,,,,,,,,,,,,,,,,,,,,,,,,,,,,,,,,,,,,,,,,,,,,,,,,,,,{12}8x,2,{995}3,,,,,,,,,,,,,,,,,,,,,,,,,,,,,,,,,,,,,,,,,,,,,,,,,,,,,,,,,,,,,,,,,,,,,,,,,,,,,,,,,,,{12}4h[8:2]b,
{12}6,{995}5,,,,,,,,,,,,,,,,,,,,,,,,,,,,,,,,,,,,,,,,,,,,,,,,,,,,,,,,,,,,,,,,,,,,,,,,,,,,,,,,,,,{12}4x,2,{995}1,,,,,,,,,,,,,,,,,,,,,,,,,,,,,,,,,,,,,,,,,,,,,,,,,,,,,,,,,,,,,,,,,,,,,,,,,,,,,,,,,,,{12}8h[8:2]b,6,{995}7,,,,,,,,,,,,,,,,,,,,,,,,,,,,,,,,,,,,,,,,,,,,,,,,,,,,,,,,,,,,,,,,,,,,,,,,,,,,,,,,,,,{12}8,3,{995}4,,,,,,,,,,,,,,,,,,,,,,,,,,,,,,,,,,,,,,,,,,,,,,,,,,,,,,,,,,,,,,,,,,,,,,,,,,,,,,,,,,,{12}5h[8:2]b,
{12}7,{995}6,,,,,,,,,,,,,,,,,,,,,,,,,,,,,,,,,,,,,,,,,,,,,,,,,,,,,,,,,,,,,,,,,,,,,,,,,,,,,,,,,,,{12}5x,3,{995}2,,,,,,,,,,,,,,,,,,,,,,,,,,,,,,,,,,,,,,,,,,,,,,,,,,,,,,,,,,,,,,,,,,,,,,,,,,,,,,,,,,,{12}1,8>4[8:1],,,8<4[8:1]/4h[8:10]b,,,
{4}8V24[8:1],8V64[8:1],8>2-4[8:1],8<6-4[8:1],
{4}8-4[8:1]b,8,1>5[8:1],1<5[8:1]/5h[8:10]b,
{4}1V35[8:1],1V75[8:1],1>3-5[8:1],1<7-5[8:1],
{16}1w5[8:1]b,,,,1,,,,18,2,83,,18,7,61,,
{16}28,3,84,,17,6,15,,1bx/8bx/2,3,4/1bx/8bx,,1bx/8bx/7,6,1bx/8bx/5,,
{16}1bx/8bx/3,4,5/1bx/8bx,,1bx/8bx/6,5,4/1bx/8bx,,5,4,5,4,6,3,6,3,
{16}7h[16:1]b,2h[16:1],7h[16:1]b,2h[16:1],8h[16:1]b,1h[16:1],8h[16:1]b,1h[16:1],{641}8,,,,,,,,,,,,,,,,,,,,{639}7,,,,,,,,,,,,,,,,,,,,6,,,,,,,,,,,,,,,,,,,,{641}5,,,,,,,,,,,,,,,,,,,,4,,,,,,,,,,,,,,,,,,,,{639}3,,,,,,,,,,,,,,,,,,,,2,,,,,,,,,,,,,,,,,,,,{641}1,,,,,,,,,,,,,,,,,,,,8>2v3<5[8:3]b,,,,,,,,,,,,,,,,,,,,{639}7,,,,,,,,,,,,,,,,,,,,6,,,,,,,,,,,,,,,,,,,,{641}5,,,,,,,,,,,,,,,,,,,,4,,,,,,,,,,,,,,,,,,,,{639}3,,,,,,,,,,,,,,,,,,,,2,,,,,,,,,,,,,,,,,,,,{641}1,,,,,,,,,,,,,,,,,,,,
{16}8,,,,,,,,1h[8:1]/3h[8:1],,,6h[8:1]/8h[8:1],,,2h[8:1]/4h[8:1],,
{16},5h[8:1]/7h[8:1],,,8h[8:1],,,,1b/2b/3b,,,,6b/5b,,,,
{16}8bw4[8:1],,,,8,,,,3,,2,,18,,7,5,
{16}7,,4/3/2,,8/1>4[8:1],,,,,,5,6,7,8,12,,
{16}4h[8:3],,1,8,7,,5h[8:2],,1,,2,,34,,8,,
{16}7,,6/5/4,,3>7[4:1],,4,,7,6,5,4,3,,8,1,
{16}2,,4/5,,2/7,,,,6,,7,,81,,2,5,
{8}2,3/4,8,5/6,1h[4:1],34,8h[4:1],65,
{16}2h[4:1],,5,6,7,,1/8,,7,,6,,4/5h[8:3],,2,,
{16}3,,4h[8:3],,8,,7,,6h[4:1]/5h[4:1],,3,2,1,,6h[4:1]/5h[4:1],,
{16}8,1,2,,4/5,,,,2b/3b/4b,,,,7b/8b,,,,
{16}2b-7[8:1]b*v5[8:1]b,,,,2,,,,,,
1,2,3,4,56,,
{16}24,,1,8,1>4[8:1],,65,,7/1b,,,,75,,6,,
{8}5,14,2,3,4/5h[4:1]/6h[4:1],3,2,1/7h[4:1]/8h[4:1],
{16}2,,3,,4/6,,,,1b/2b^7[4:1],,,,,,6,5,
{8}4-8[8:1],2,4>1[8:1],,4,7h[8:6],,6h[8:4],
{8},5h[8:2],4>8[4:1],,8V25[4:1],7,6,5,
{16}6,,7,,8,,13,,45,,2,,1,,7,8,
{8}7,1/8,2b/7b,,5h[1993:1827]/2b,,,,
{12},,,,,{625}1,,,,,,,,,,,,,,,,,,,,,,,,,,{983}2,,,,,,,,,,,,,,,,,,,,,,,,,,,,,,,,,,,,,,,,,{8}3,6,4,7,
{8}8-4[8:1]/3,2,1/8b,,{983}2,,,,,,,,,,,,,,,,,,,,,,,,,,,,,,,,,,,,,,,,,{625}3,,,,,,,,,,,,,,,,,,,,,,,,,,{24}4,,,,,,,,,,
{8}6^1[8:1],,,2^5[8:1],,,7^2[8:1],,
{8},3^6[8:1],,,8^5[8:1],,,4^1[8:1],
{8},,7^4[8:1],,,3>7[8:3],,,
{8}3xh[8:2],,,,{983}2,,,,,,,,,,,,,,,,,,,,,,,,,,,,,,,,,,,,,,,,,{625}3,,,,,,,,,,,,,,,,,,,,,,,,,,{48}4h[1993:3820]b,,,,,,,,,,,,,,,,,,,,
{16}6-4[16:1],,,6,,,7-4[16:1],,,7,,,8-4[16:1],,,8,
{16},,1-4[16:1],,,1,,,{983}5,,,,,,,,,,,,,,,,,,,,,,,,,,,,,,,,,,,,,,,,,{625}6,,,,,,,,,,,,,,,,,,,,,,,,,,{48}7h[1993:3820]b,,,,,,,,,,,,,,,,,,,,
{16}1-7[16:1],,,1,,,3-7[16:1],,,3,,,4-7[16:1],,,4,
{16},,5-7[16:1],,,5,,,{983}1,,,,,,,,,,,,,,,,,,,,,,,,,,,,,,,,,,,,,,,,,{625}2,,,,,,,,,,,,,,,,,,,,,,,,,,{48}3h[1993:3820]b,,,,,,,,,,,,,,,,,,,,
{16}1-3[16:1],,,1,,,8-3[16:1],,,8,,,7-3[16:1],,,7,
{16},,6-3[16:1],,,6,,,{983}8,,,,,,,,,,,,,,,,,,,,,,,,,,,,,,,,,,,,,,,,,{625}7,,,,,,,,,,,,,,,,,,,,,,,,,,{48}6h[1869:662],,,,,,,,,,,,,,,,,,,,
{16}1h[8:1]/2h[8:1]/5h[8:1],,,2h[8:1]/3h[8:1]/6h[8:1],,,3h[8:1]/4h[8:1]/7h[8:1],,,4h[8:1]/7h[8:1]/8h[8:1],,,3h[8:1]/6h[8:1]/7h[8:1],,,2h[8:1]/5h[8:1]/6h[8:1],
{16},,7h[8:1]/8h[8:1],,,1h[8:1]/7h[8:1],,,{983}2,,,,,,,,,,,,,,,,,,,,,,,,,,,,,,,,,,,,,,,,,{625}3,,,,,,,,,,,,,,,,,,,,,,,,,,{48}4h[1993:3820]b,,,,,,,,,,,,,,,,,,,,
{16}7-4[16:1],,,7,,,8-4[16:1],,,8,,,1-4[16:1],,,1,
{16},,2-4[16:1],,,2,,,{983}8,,,,,,,,,,,,,,,,,,,,,,,,,,,,,,,,,,,,,,,,,{625}7,,,,,,,,,,,,,,,,,,,,,,,,,,{48}6h[1869:662],,,,,,,,,,,,,,,,,,,,
{16}2h[8:1]/5h[8:1]/4h[8:1],,,5h[8:1]/8h[8:1]/4h[8:1],,,2h[8:1]/5h[8:1]/4h[8:1],,,5h[8:1]/8h[8:1]/4h[8:1],,,5h[8:1]/7h[8:1]/4h[8:1],,,5h[8:1]/6h[8:1]/4h[8:1],
{16},,3h[8:1]/5h[8:1]/4h[8:1],,,2h[8:1]/5h[8:1]/4h[8:1],,,4h[8:1]/7h[8:1]/3h[8:1],,,1h[8:1]/4h[8:1]/3h[8:1],,,4h[8:1]/7h[8:1]/3h[8:1],,
{16},4/1^4[16:1]*^6[16:1],,,1b,,,,2h[8:1]/5h[8:1]/6h[8:1],,,5h[8:1]/8h[8:1]/6h[8:1],,,2h[8:1]/5h[8:1]/6h[8:1],,
{16},5/8^3[16:1]*^5[16:1],,,8b,,,,4h[8:1]/7h[8:1]/3h[8:1],,,1h[8:1]/4h[8:1]/3h[8:1],,,4h[8:1]/7h[8:1]/3h[8:1],,
{16},4h[8:1]/6h[8:1]/3h[8:1],,,1h[8:1]/4h[8:1]/5h[8:1],,,2h[8:1]/4h[8:1]/5h[8:1],,,4h[8:1]/7h[8:1]/3h[8:1],,,1/4pp1[16:15]b,,,
{1}4b,
{12}6,{995}7,,,,,,,,,,,,,,,,,,,,,,,,,,,,,,,,,,,,,,,,,,,,,,,,,,,,,,,,,,,,,,,,,,,,,,,,,,,,,,,,,,,{12}8h[6:1],4,{995}3,,,,,,,,,,,,,,,,,,,,,,,,,,,,,,,,,,,,,,,,,,,,,,,,,,,,,,,,,,,,,,,,,,,,,,,,,,,,,,,,,,,{12}2,5/1-5[6:1]*-5[6:1],,,1h[8:8]b,,,
{12}3,{995}2,,,,,,,,,,,,,,,,,,,,,,,,,,,,,,,,,,,,,,,,,,,,,,,,,,,,,,,,,,,,,,,,,,,,,,,,,,,,,,,,,,,{12}1x,3,{995}2,,,,,,,,,,,,,,,,,,,,,,,,,,,,,,,,,,,,,,,,,,,,,,,,,,,,,,,,,,,,,,,,,,,,,,,,,,,,,,,,,,,{12}1x,3,{995}2,,,,,,,,,,,,,,,,,,,,,,,,,,,,,,,,,,,,,,,,,,,,,,,,,,,,,,,,,,,,,,,,,,,,,,,,,,,,,,,,,,,{12}1x,3,{995}2,,,,,,,,,,,,,,,,,,,,,,,,,,,,,,,,,,,,,,,,,,,,,,,,,,,,,,,,,,,,,,,,,,,,,,,,,,,,,,,,,,,{12}1x,
{12}5,{995}6,,,,,,,,,,,,,,,,,,,,,,,,,,,,,,,,,,,,,,,,,,,,,,,,,,,,,,,,,,,,,,,,,,,,,,,,,,,,,,,,,,,{12}7h[6:1],3,{995}2,,,,,,,,,,,,,,,,,,,,,,,,,,,,,,,,,,,,,,,,,,,,,,,,,,,,,,,,,,,,,,,,,,,,,,,,,,,,,,,,,,,{12}1,4/8-4[6:1]*-4[6:1],,,8h[8:8]b,,,
{12}6,{995}7,,,,,,,,,,,,,,,,,,,,,,,,,,,,,,,,,,,,,,,,,,,,,,,,,,,,,,,,,,,,,,,,,,,,,,,,,,,,,,,,,,,{12}8x,6,{995}7,,,,,,,,,,,,,,,,,,,,,,,,,,,,,,,,,,,,,,,,,,,,,,,,,,,,,,,,,,,,,,,,,,,,,,,,,,,,,,,,,,,{12}8x,6,{995}7,,,,,,,,,,,,,,,,,,,,,,,,,,,,,,,,,,,,,,,,,,,,,,,,,,,,,,,,,,,,,,,,,,,,,,,,,,,,,,,,,,,{12}8x,6,{995}7,,,,,,,,,,,,,,,,,,,,,,,,,,,,,,,,,,,,,,,,,,,,,,,,,,,,,,,,,,,,,,,,,,,,,,,,,,,,,,,,,,,{12}8x,
{12}6,{995}7,,,,,,,,,,,,,,,,,,,,,,,,,,,,,,,,,,,,,,,,,,,,,,,,,,,,,,,,,,,,,,,,,,,,,,,,,,,,,,,,,,,{12}8,4,{995}3,,,,,,,,,,,,,,,,,,,,,,,,,,,,,,,,,,,,,,,,,,,,,,,,,,,,,,,,,,,,,,,,,,,,,,,,,,,,,,,,,,,{12}2,5/1-5[6:1]b,,1,1h[8:4]b,,,
{12}7,{995}8,,,,,,,,,,,,,,,,,,,,,,,,,,,,,,,,,,,,,,,,,,,,,,,,,,,,,,,,,,,,,,,,,,,,,,,,,,,,,,,,,,,{12}1x,7,{995}8,,,,,,,,,,,,,,,,,,,,,,,,,,,,,,,,,,,,,,,,,,,,,,,,,,,,,,,,,,,,,,,,,,,,,,,,,,,,,,,,,,,{12}1x,6,{995}7,,,,,,,,,,,,,,,,,,,,,,,,,,,,,,,,,,,,,,,,,,,,,,,,,,,,,,,,,,,,,,,,,,,,,,,,,,,,,,,,,,,{12}8h[8:2]b,6,{995}7,,,,,,,,,,,,,,,,,,,,,,,,,,,,,,,,,,,,,,,,,,,,,,,,,,,,,,,,,,,,,,,,,,,,,,,,,,,,,,,,,,,{12}8x,
{12}5,{995}6,,,,,,,,,,,,,,,,,,,,,,,,,,,,,,,,,,,,,,,,,,,,,,,,,,,,,,,,,,,,,,,,,,,,,,,,,,,,,,,,,,,{12}7h[8:2]b,5,{995}6,,,,,,,,,,,,,,,,,,,,,,,,,,,,,,,,,,,,,,,,,,,,,,,,,,,,,,,,,,,,,,,,,,,,,,,,,,,,,,,,,,,{12}7x,4,{995}5,,,,,,,,,,,,,,,,,,,,,,,,,,,,,,,,,,,,,,,,,,,,,,,,,,,,,,,,,,,,,,,,,,,,,,,,,,,,,,,,,,,{12}6h[8:2]b,4,{995}5,,,,,,,,,,,,,,,,,,,,,,,,,,,,,,,,,,,,,,,,,,,,,,,,,,,,,,,,,,,,,,,,,,,,,,,,,,,,,,,,,,,{12}6x,3,{995}4,,,,,,,,,,,,,,,,,,,,,,,,,,,,,,,,,,,,,,,,,,,,,,,,,,,,,,,,,,,,,,,,,,,,,,,,,,,,,,,,,,,{12}5h[8:2]b,
{12}3,{995}4,,,,,,,,,,,,,,,,,,,,,,,,,,,,,,,,,,,,,,,,,,,,,,,,,,,,,,,,,,,,,,,,,,,,,,,,,,,,,,,,,,,{12}5,2,{995}3,,,,,,,,,,,,,,,,,,,,,,,,,,,,,,,,,,,,,,,,,,,,,,,,,,,,,,,,,,,,,,,,,,,,,,,,,,,,,,,,,,,{12}4h[8:2]b,2,{995}3,,,,,,,,,,,,,,,,,,,,,,,,,,,,,,,,,,,,,,,,,,,,,,,,,,,,,,,,,,,,,,,,,,,,,,,,,,,,,,,,,,,{12}4x,1,{995}2,,,,,,,,,,,,,,,,,,,,,,,,,,,,,,,,,,,,,,,,,,,,,,,,,,,,,,,,,,,,,,,,,,,,,,,,,,,,,,,,,,,{12}3h[8:2]b,1,{995}2,,,,,,,,,,,,,,,,,,,,,,,,,,,,,,,,,,,,,,,,,,,,,,,,,,,,,,,,,,,,,,,,,,,,,,,,,,,,,,,,,,,{12}3x,8,{995}1,,,,,,,,,,,,,,,,,,,,,,,,,,,,,,,,,,,,,,,,,,,,,,,,,,,,,,,,,,,,,,,,,,,,,,,,,,,,,,,,,,,{12}2h[8:2]b,8,{995}1,,,,,,,,,,,,,,,,,,,,,,,,,,,,,,,,,,,,,,,,,,,,,,,,,,,,,,,,,,,,,,,,,,,,,,,,,,,,,,,,,,,{12}2x,
{12}6,{995}5,,,,,,,,,,,,,,,,,,,,,,,,,,,,,,,,,,,,,,,,,,,,,,,,,,,,,,,,,,,,,,,,,,,,,,,,,,,,,,,,,,,{12}4,3,{995}2,,,,,,,,,,,,,,,,,,,,,,,,,,,,,,,,,,,,,,,,,,,,,,,,,,,,,,,,,,,,,,,,,,,,,,,,,,,,,,,,,,,{12}1,{2}8pp5[8:8]b,{1},
{4}2b/3b/4b,6b/7b,1bw5[12:1],1,
{16}2,,1,,87,,6<1[8:1],5,6,,63,,4-1[8:1],,,,
{12}47,{995}7,,,,,,,,,,,,,,,,,,,,,,,,,,,,,,,,,,,,,,,,,,,,,,,,,,,,,,,,,,,,,,,,,,,,,,,,,,,,,,,,,,,{12}6,5h[6:1]x,{995}8,,,,,,,,,,,,,,,,,,,,,,,,,,,,,,,,,,,,,,,,,,,,,,,,,,,,,,,,,,,,,,,,,,,,,,,,,,,,,,,,,,,{12}7,6h[6:1]x,{995}1,,,,,,,,,,,,,,,,,,,,,,,,,,,,,,,,,,,,,,,,,,,,,,,,,,,,,,,,,,,,,,,,,,,,,,,,,,,,,,,,,,,{24}8,,7q3[8:1],,,2,,,
{8}3,4,5/7,6,5,2/4,3>7[4:1]b,4,
{16}7,6,5,4,3h[8:2]b,,1,2,3x,,4/5,,1/6^1[8:1],,,,
{16}1,2,3,4,5h[8:2]b,,7,6,5x,,2/4,,18,,7/5,,
{16}2h[4:1],,4,,8h[4:1]/7h[4:1],,5,,1h[4:1]/2h[4:1],,4,5,6,,1/8,,
{8}2,3,4h[8:3]/5,6,7,8h[8:3],1,2,
{16}3h[4:1]/4h[8:2],,7,6,5,,3h[4:1]/4h[8:2],,1,8,7,,45,,,,
{16}3b/4b/8,,7,,1b/6,,2,3,5/4bw8[8:1]b,,6,,4,,,,
{16},,1,82,73,64,5<8[8:1],,46,,2,3,4,,12,,
{8}4/3h[4:1],,8h[8:2]/7h[8:2],6,6,1h[8:2]/2h[8:2],3,3,
{8}4h[4:1]/5h[4:1],,,6h[4:1]/8h[4:1],,,1h[8:1]/3h[8:1],,
{16}8b/7b^2[4:1],,,,,,3,4,5-1[8:1],,6,,5<8[8:1],,,,
{8}5,2h[8:5],,3h[8:3],,4h[8:1],5<8[4:1],,
{16}1h[4:3]/2h[4:3],,,,,,3,4,5,,7,,7-3[8:1],,,,
{8}8,8,,
7/1,,6/2,4b/8b,,
{16}5h[8:1]/6h[8:1]/1h[8:1],,,5h[8:1]/6h[8:1]/2h[8:1],,,3h[8:1]/4h[8:1]/8h[8:1],,,3h[8:1]/7-5[16:1]/4h[8:1],,,7,,1,,
{16}7h[8:1]/8h[8:1]/3h[8:1],,,6h[8:1]/1h[8:1]/2h[8:1],,,4h[8:1]/8h[8:1]/7h[8:1],,,7-4[16:1]/1-4[16:1],,,7b/1b,,,,
{16}2-8[16:1]/8h[8:12]b,,,2,,,6-8[16:1],,,6,
{16},,3-8[16:1],,,3,,,5-8[16:1],,,5>6[16:30]b,,,{1}4b,,,,,,,
