&title=Cy-Bird
&artist=Yooh
&first=0.02
&des=No.30 extended by SeiKA
&lv_5=14
&inote_5=(160){8},,,,,Chf[8:8],,,,,,,,1b>8[8:8],,,,
,,,,,,,,
{16}8h[16:3]/1,,,2-6[8:1],,2,,,5b<4[8:8],,,,,,,,,,,,,,,,,,,,,,,,
4/5h[16:3],,,2-6[8:1],,2,,,8b<1[8:8],,,,,,,,,,,,,,,,,,,,,,,,
1h[16:3]/8,,,7-3[8:1],,7,,,4b>5[8:8],,,,,,,,,,,,,,,,,,,,,,,,
5/4h[16:3],,,7-3[8:1],,7,,,B5/B4/E5f,,,,1,,,,1,,,,1,,,,1,,,,1,,,,1h[16:2]/E8,,,E7,1h[16:3],,E6,,E5/1h[16:3],,,3h[16:3],1h[16:3],,,2h[16:3],1h[16:3],,,8h[16:3],1h[16:3],,,7h[16:3],1h[16:3],,,6h[16:3],1h[16:3],,,5h[16:3],1h[16:3],,,4h[16:3],1h[16:3],,,3,1x-5[8:1],,1,,4-8[8:1],,4,,2-6[8:1],,2,,7-3[8:1],,7,,5x-1[8:1],,5,,8-4[8:1],,8,,3-7[8:1],,3,,5,,5,,5,1,5,2,5,3,5,4,6,4,7,4,8,4,1h[16:10],5h[16:9],,,,,,,,,,,,,1-6[8:1]/5-2[8:1],,,,1b/5b,,,,
{8}3h[16:3],4,5h[16:3],4,3h[16:3],4,5h[16:3],4,3h[16:3],4-8-2[32:7],5,6v3[8:1],7,,8b,,
{8}6xh[16:3],5,4h[16:3],5,6h[16:3],5,4h[16:3],5,6h[16:3],5v8[8:1],4V26[32:7],2,,,1b,
{16},,7h[16:3],,5,,2h[16:3],,4,,5h[16:3],,3,,1h[16:3],,4,,6h[16:3],,7V51[4:1],,8,,1-3[8:1],,,,,,4b,,
{16},,2h[16:3]/5,,4,,7h[16:3],,5,,4h[16:3],,6,,8p3[8:1]/Ch[8:3],,,,,,,,2xh[4:1]/E5/D5,E6/D6,E7/D7,E8/D8,E1/D1,,,,
{16}7/4,,6,5,8>3[8:1],,3<6[8:1],,8bx,,,,{32}E8,E1,E2,E3,{16}E4,,7h[8:1],,5,5,6,,3,4,2x-5[8:1]b,6x,,6x,2x,,,,
{16}4x/6x,,7,8,6>3[8:1],,3>8[8:1],,6bx,,,,{32}E5,E4,E3,E2,{16}E1,,6-4[8:1],,7,,6/3x-7[8:1],,1xs5[4:1]b,,,,,,,,,,
{16}6x,,3,4,1<6[8:1],,6>3[8:1],,1bx,,,,{32}E2,E1,E8,E7,{16}E6,,2h[8:1],,4,4,3,,6,5,7x-4[8:1]b,3x,,3x,7x,,,,
{16}2,,2,1,3,,6,5,7,,3,5,2,8,4,6,1bx<4[4:1],,,,B5/B4,,,,8x-2v3-5[8:1]b*-5[8:1]b,,,,,,,,
{16}7xh[16:3],,,5,,5,6,,4/7-4[8:1],,,8,7-3[8:1],,,1,7,,,4,,4,5h[8:1],,{32}3x-5[8:1]b,2x,1x,,{16},,3x/7x,,,,
{16}2xh[16:3],,,4,,4,3,,5/2-5[8:1],,,1,2-6[8:1],,,8,2,,,5,,5,4h[8:1],,{32}6x-3[8:1]b,7x,8x,,,,,,5bxh[4:1],,,,,,,,
{16}8xh[16:3],,,5,,5,7,,4/6-1[8:1],,,5,6-4[8:1],,,2,6,,,8,,8,7,,{32}2x-8[8:1]b,3x,4x,,,,,,2x/5x,,,,,,,,
{16}2xh[16:3],,,4,,4,2,,5/3-8[8:1],,,4,3-5[8:1],,,7,3,,,1,,1,2,,{32}7x-3[8:1]b,6x,5x,,,,,,4x>5[2:7],,,,,,,,
{4}2b,,Ch[4:1],,,,Ch[4:1],,,,Ch[4:1],,,,Ch[4:1],B1/B2/B5/B6,
{8}3,3,3/5-7[8:1],3,3/5x-1[8:1],3,3/5x,3,7,7,7/1-3[8:1],7,7/1x-5[8:1],7,7/1x,7,
{16}4,8,4,7,4,6,4,5,3,5,2,5,1,5,8h[16:6],4h[16:5],,,,,,,,,8-3[8:1]/4-7[8:1],,,,8b/4b,,,,
{16}6x,,57,,2,1,4,6,3-5[8:1],,1-7[8:1],,3x,,1x,,3x,,24,,6,5,8,1,7-5[8:1],,8-4[8:1],,7x,,8x,,
{16}7x,,56,,1,8,3,4,2-5[8:1],,6-1[8:1],,2x,,6x,,4x,,28,,7,8,5,4,6bv7-1[4:1],,,,2xh[8:1],,,,
{16}3x,,24,,7,8,5,3,6-4[8:1],,8-2[8:1],,6x,,8x,,6x,,75,,3,4,1,8,2-4[8:1],,1-5[8:1],,2x,,1x,,
{16}2x,,43,,8,1,6,5,7-3[8:1],,3,,7x,,2xh[2:1],,E3,E4,E5,,E1,E8,E7,,4-1[8:1]b,,4-7[8:1]b,,,,,,
{16}3x,,2h[8:1]/4,,3,1,7,8,6-1[8:1],,3<4-6[8:1]b,,6x,,3x,,8x,,7h[8:1]/1,,5,6,3,4,1q5[8:1],,6<7-1[8:1]b,,1x,,6x,,
{16}4x,,5/3h[8:1],,1,2,6,5,7-5>4[8:1],,3v8[8:1]b,,7x,,3x,,6x,,2/4h[8:1],,3,5,4,6,5b-1-3[4:1]b,,,,7xh[8:1],,,,
{16}6x,,7h[8:1]/5,,6,8,2,1,3-8[8:1],,6>5-3[8:1]b,,3x,,6x,,1x,,2h[8:1]/8,,4,3,6,5,8p4[8:1],,3>2-8[8:1]b,,8x,,3x,,
{16}5x,,4/6h[8:1],,8,7,3,4,2-4<5[8:1],,6v1[8:1]b,,2x,,6x,,3bh[8:1],,,7bh[8:1]/8h[8:1],,,6/5b,,3x,4,2x,4,1x,4,8x,4,
{16}7bx<3[8:3],,,8,,8,,,1-5[8:1],,,2,1V73[2:1],,,2,1,,,4,,4,,,5-8[8:1],,,4,5<2[2:1],,4,,
{16}5x,,,3,,3,,,4-7[8:1],,,3,4pp8[2:1],,,2,4,,,1,,1,,,3h[16:3],,,,{32}E6,E7,E8,E1,E2,E3,E4,E5,
{16}2bx>6[8:3],,,1,,1,,,8-4[8:1],,,7,8V26[2:1],,,7,8,,,5,,5,,,4-1[8:1],,,5,4>7[2:1],,5,,
{16}4x,,,6,,6,,,5-2[8:1],,,6,5,,,7,1-5[8:1],,1,,6-2[8:1],,6,,4z8[8:1]b*-8[8:1]b,,4,,,,,,
{16}3bx/5bxh[16:10],,,6,,6,,,A4,A3,A2,A1,A8/7-4[16:1],,7,,3xh[16:10]/7x,,,2,,2,,,E5,E6,E7,E8,E1/4-7[16:1],,4,,
{16}4x/6xh[16:10],,,8,,8,,,D6,D5,D4,D3,D2/7-3[16:1],,7,,7x/4xh[16:10],,,2,,2,,,1,8,7,6,3b/5b,,,,
{16}2-5[8:1],,1-6[8:1],,2,,1,,4-8[8:1],,7-5[8:1],,4,,7,,1-3[8:1],,6-4[8:1],,1,,6,,8-4[8:1],,8,,5,,5,,
{16}5,1,5,2,5,3,5,4,6bx,4bx,7bx,4bx,8bx,4bx,1bxh[16:10],5bxh[16:9],,,,,,,,,,,,,1-6[8:1]/5-2[8:1],,,,
{16}1bV35[2:1]b/5bV71[2:1]b,,,,,,,,,,,,,,,,B8/E8/A7/D7f/A6/E6/B5,,,A1/A4/B1/B4/D2/A2/D4/A3/E3f,,
