&title=夢縁
&artist=xi / Risa Yuzuki
&first=-0.48
&lv_5=14
&des_5=Ayuri
&inote_5=
(162){4},,,,,,4/3,
5/6,
{16}3,5,3,5,{4}4>1[8:1],{16}4,,,6h[16:3],{8}8,8,
7/1,1/7,{4}8<5[8:1],{16}8,,,2h[16:3],{8}4,4,
3/5,5/3,{4}6-2[8:1],{16}6/4,,,3,{8}3,5/2,
{16}2,4,3,5,{8}4,5/6,{16}7,5,6,4,5,3,4,2,
{8}5,{16}3,2,1,8,7,6,{8}5/3,8,6/4,1,
1/7,4,2/8,5,7/4,6,2/5,3,
7/4,6,2/5,3,2-4[8:1],3,1-5[8:1],8,
7-5[8:1],7,8-4[8:1],1,{2}8<2[4:1],
{16},,8,1,8<1[2:1],1,8,1,{2}8,
{8},,5pp1[8:5],4,5,,,3h[8:3],
,,2qq6[8:5],3,{2}2,
{4}4h[8:1],5h[8:1],{8}3/6,{16}7,2,{8}8<2[2:1],1h[8:3],
,,,,{2}1>5[4:1],
{4}6,{8}4qq8[8:5],5,4,,,6h[8:3],
,,7pp3[8:5],6,{4}7,6h[8:1],
5h[8:1],4h[8:1],{8}6/3,{16}2,7,{8}1>7[2:1],8h[8:3],
,,,,{4}8<4[4:1],{16}4,3,2,1,
{4}8,{8}2/6,3/7,{2}4h[2:1]/8qq4[4:1],
{6},3/5,4/6,7h[2:1]/3qq7[4:1],,,,6/8,
7/1,{24}8/2,,,3,{48},{16}5,{8}4<1[8:3],6,
8h[2:1],,,,,3,5,4,
6,5,{16}7V51[3:1],4,7,4,{6}7,3,2V48[4:1],
6,6,6,7-2[8:1],{12},{4}7/3-6[8:1],
{8}3,{16}7,8,{8}1-6[8:1],3-6[8:1],1-5[8:1],3-7[8:1],1<1[2:1],3,
,,,,8,8,{16}2,1,3,8,
2,1,4,7,2,1,5,6,{8}4-2[8:1],7,4-8[8:1],6,
4/5-7[8:1],5,{4}1h[8:1]/5-1[8:1],5/8h[8:1],{8}6<1[8:1],1>4[8:1],
{2}4<7[8:1],{8}1-3[8:1],6,1-5[8:1],7,
1/8-6[8:1],8,{4}4h[8:1]/8-4[8:1],8/5h[8:1],{8}3/6,1/8,
2/7,{16}3,6,{8}4-7[8:1],{16}5,2,{8}4b,1,8-4[8:1],7,
8,{16}7,6,{8}5-2[8:1],4/6,{4}5-8[8:1],5/1-4[8:1],
1-6[8:1],{8}1,{16}3,4,5>2[8:1],,,6h[16:3],{4}5,
{16}1<6[8:1],,,2h[16:3],{4}1,{8}4/7,{16}5,6,{8}5,{16}8,3,
7,4,1,2,8,3,7,4,{8}6b,{16}3>8[8:1],5,{8}3,5,
6,{16}7<4[8:1],1,{8}7,3,3,2/8,4/3,5/6,
8-4[8:1],2-6[8:1],8,2,5-2[8:1],{16}5,4,{4}5,
{8}1-6[8:1],{16}1,8,{4}1,{8}5/4,2/7,3/5,6/4,
5/2,{16}7/4,6,5,4,3,2,{4}1<6[8:1],1/2,
{8}5/3,{16}8,6,{8}8,1/7,{4}8>3[8:1],8/7,
{16}5,3,{8}5,{16}4,6,{8}4,3/7,{16}2,1,{8}2,3/8,
6/2,{16}7,8,{8}7,6/1,3/7,3/7,{16}4,4,5,5,
6,6,7,7,{4}8-4[8:1],8b/1b,{16}3,5,2,5,
{8}1,6/3,{16}6,4,7,4,{8}8,6/3,{16}6,5,6,7,
{8}6,1/7,8/2,1,{16}3,4,2,1,4,5,1,8,
5,6,8,7,1,5,2,4,{8}3>8[8:1],8>3[8:1],{4}3,
4h[4:1],{8}2,3/5,{4}4h[8:1]/6h[8:1],{16}3,6,4,7,
{8}5,3/8,4,6/1,7/8,{16}6,5,7,8,5,4,
8,1,4,3,1,2,8,3,7,4,6,5,7,4,6,5,
7,3,6,4,5,3,6,4,{8}5-1[8:1],6-2[8:1],5,6,
3h[4:1],{16}1,8,7,6,5,4,{8}3/2-6[8:1],1,5-8[8:1],4,
{16}8,1,2,3,{8}4,5/7,5/7-3[8:1],8,4-1[8:1],5,
{16}1,8,7,6,{8}5/3,3/5,{16}2,4,2,4,3,5,3,5,
4>6[4:1],6,4,6,{4}4,{8}5-1[8:1],4,2-7[8:1],3,
5-1[8:1],4,2>8[2:1],3,{2}8h[2:1],
{8},,7/2,3/6,4/5,{16}3,4,,4,{8}5,
6/3,6/3,{16}7,4,7,4,7,5,6,2,4,3,8,5,
6,1,4,3,8,7,6,5,{8}4b,4b,4b,4b,
2-8[8:1],2-4[8:1],2-6[8:1],2,{2}2b<2[8:29],
{4},,,,,,,,,,,,,,8/1,
3b/6b,
5/4,2b/7b,2-4[8:1],2b/1-5[8:1],
1b/8-4[8:1],8b/7-5[8:1],{16}7b,,,3,{8}4,2/5,
{16}5,,,6,{8}5,7/4,4,{16}6,3,7,2,6,3,
7,2,6,3,{24}7,8,1,2,3,4,{8}5-7[8:1],2,5b-1[8:1],3,
{4}5/4-2[8:1],{8}8/4-8[8:1],8,4/7,7,3>8[8:1],8<5[8:1],
{2}3/5>2[8:1],{8}8-6[8:1],3,8-4[8:1],2,
{4}8/1-3[8:1],{8}5/1-5[8:1],5,1/4,4,6/3,8/1,
7/2,{16}6,3,{8}5-2[8:1],{16}4,7,{8}5b,8,3/1-5[8:1],2,
1,{16}2,3,{8}4-7[8:1],5/3,{4}4b-1[8:1],4b/8-5[8:1],
8b-3[8:1],{8}8b,{16}6,5,4<7[8:1],,,3,{8}4,3,
8>3[8:1],7,{4}8,{8}5/2,{16}4,3,{8}4,{16}1,6,
2,5,8,7,1,8,2,1,3b<6[8:1],,,1h[16:3],{4}3,
{16}2,3,4,5,{8}6/3,2/7,{16}1,8,2,7,1,8,3,6,
1,8,4,5,3,4,2,4,{8}3-1[8:1],2,4-8[8:1],5,
6-8[8:1],6,5-1[8:1],4,{2}5<3[2:1],
3h[4:1],{8}6-8[8:1],7,5-1[8:1],4,
3-1[8:1],3,4-8[8:1],5,{4}4>6[4:1],4,
{16},,5,4,5w1[8:1],3,5,2,{2}5>5[2:1],
{16},,,,,,4/6,3/7,{2}2/8,
E
&lv_6=14
&des_6=Ayuri
&inote_6=
(162){4},{1},{4},{32}2/1h[8:1],
3,4,5,,,,,7/8h[8:1],6,5,4,,,,,{16}3,
5,4,6,{8}3/5,1/7,{16}2/8h[4:1],,,4,{8}4,7/3,
6/4,4/6,{4}7-3[8:1]*>2[8:1],{16}7,,,4,{8}4,2/6,
3/5,5/3,{4}2-6[8:1]*<7[8:1],{16}2,,,4,{8}4,7/3,
{16}1-5[8:1],7,2,8,{4}1,{16}7,5,7,4,5,4,6,5,
{8}7,{16}3,8,2,1,3,8,{8}2-4[8:1],4,2-8[8:1],5,
2-6[8:1],6,2<3[8:3],7,{2}2/8h[8:3],
{8}7/2,3,4/5,{16}6,6,{8}3>1[8:1],1<7[8:1],7<5[8:1],5>3[8:1],
,,8,8,2,2,7,7,
3/6,{16}2,7,1,8,2,7,1,2,3,4,1/5,2,3,4,
5/1,2/6,3/7,4/8,{4}1/5>2[8:1],{8}5,6,7,8h[8:3],
,,2<4[2:1],1/7,{2}2/8h[8:3],
{8}8,{16}8,7,{8}6,3,3,{16}7,6,{8}5>7[2:1],2h[8:3],
{2}5,2q5[4:1],
{4},4<7[8:1],{8}4,3,2,1h[8:3],
,,7>5[2:1],8/2,{2}7/1h[4:1],
{8}1,{16}1,2,{8}3,6,6,{16}2,3,{8}4<2[2:1],7h[8:5],
{16}4,,,,,,,,,6,5,4,3,2,1,8,
{8}7,{16}1,2,{8}5/3<8[4:1],4/2,{6}3/1,2,1,
8-4[8:1],7,6,5-1[8:1],{24},,{8}5,4,
3/8,{16}7,6,{8}5,5,4/3,{16}2,1,{8}8pp4[2:1]*qq4[2:1],8,
8,,,,,1,2,3,
4/6,5/7,8h[4:1]/6>1[4:1],6,{6}6,7,8,
1-5[8:1],2,3,6<1[8:1],{12},{4}6/5>2[8:1],
5/6,{8}1<6[8:1],6>3[8:1],{2}3>8[8:1],
{16}4,3,2,1,5,6,7,8h[16:3],{8}1b,1b,{16}7,6,5,4,
1,3,2,8,1,3,2,8,{8}1>4[8:1],{16}3,3,{8}1-5[8:1],6,
1,{16}8,7,{8}6-2[8:1],2<7[8:1],{4}6,{8}3<6[8:1],2,
1,8,7,7,8<5[8:1],{16}1,1,{8}8-4[8:1],4,
8,{16}1,2,{8}3-7[8:1],7>2[8:1],{4}3,{8}6-1[8:1],1-6[8:1],
6-3[8:1],3-6[8:1],,2,2,3/7,5/1,1/5,
8<5[16:1],{16}1,1,{8}8>3[16:1],2,{4}8/7-3[16:1],{32}7/8-4[16:1],1,{16}2,{32},,,,8/7pp6[4:1],
6,{16}5,,,{4}7,{16}5>2[8:1],,,6,{8}6,8,
{16}1<6[8:1],,,2,{8}2,4,{16}5,4,5,3,5,2,5,1,
5,2,5,3,{32}1,8,7,6,5,4,3,2,{8}5/1-4[8:1],6,7/1>5[8:1],8,
{4}6h[8:1]/1-6[8:1],7h[8:1]/1<5[8:1],1/2,{8}8>4[4:1]*qq8[4:1],1,
{2}8,{8}4/8-5[8:1],3,2/8<4[8:1],1,
{4}3h[8:1]/8-3[8:1],2h[8:1]/8>4[8:1],8/7,{8}5/1,4/8,
7/3h[8:3],{16}4,5,6,7,{8}8,7<4[8:1]/1>4[8:1],8,{4}1b/7b,
{8}2>5[8:1]/8<5[8:1],1,{4}8b/2b,{16}1b-4[16:1],2,{8}3,{16}5b-8[16:1],6,{8}7,
{16}3b-8[16:1],2,{8}1,{16}7b-4[16:1],6,{8}5,{16},,,2/1,{8}1/2,4/7,
{16}1/2,,,7/8,{8}8/7,5/2,{4}8/7,{16}1,2,7,6,
2,3,6/2,5/1,{8}8/4w8[8:1],4,{4}4b,{16}2/6,3/7,4/8,5/1,
{4}6h[8:1]/2h[8:1],{16}6/2,5/1,4/8,3/7,{4}6h[8:1]/2h[8:1],{16}4,6,4,2,
4,6,4,2,{8}4,4,{16}5,4,5,6,5,4,5,6,
5,3,5,7,5,3,5,7,{8}5,4/6,4/6,5/3,
{4}4/2,{8}3/1,2/8,{4}1h[8:1]/7h[8:1],{16}2/6,3/7,4/8,5/1,
{4}2h[8:1]/6h[8:1],{8}4/8,6/2,7/8,{16}2,1,3,4,1,8,
2,3,2,1,3,4,1,8,2,3,2,5,4,5,3,4,
3,6,3,5,3,4,2,3,{8}1,{24}5,6/4,7/3,{8}8/2,1,
3h[4:1],{16}1,8,7,6,5,4,{8}1-5[8:1],5V31[8:1],8/1,8,
{16}8,7,6,5,{8}8V24[8:1],4-8[8:1],{4}8/7,{8}6,6,
{16}1,7,1,7,2,8,2,8,{8}1V75[8:1],5-1[8:1],{4}1/2,
{16}2,3,4,5,{8}6,7/8,1v4[8:1],2,1/7-3[8:1],6,
7/1-5[8:1],2,1/7v4[8:1],6,{2}7b<1[8:3],
{8},,8-4[8:1],8,{4}8b-6[8:1]*-2[8:1],8b<4[8:1]*>4[8:1],
8b,{8}3/6,3/6,{16}2,1,8,6,7,8,2,2,
6,5,4,2,3,4,6,6,3,5,4,6,3,5,4,6,
2,8,2,7,2-6[8:1],6,2,5,{2}2bV86[4:3]*V46[4:3],
{8},,,,,,5,5,
4,4,3,3,{2}3-7[8:7],
{4},,,6h[8:1],
5h[8:1],4h[8:1],3>8[8:1]/4<7[8:1],3b/4b,
6<1[8:1]/5>2[8:1],6b/5b,2-6[8:1],2b/1-5[8:1],
1b/8-4[8:1],8b/7-3[8:1],{16}7b,,,4,{8}4,7/5,
{16}5/7,,,6,{8}6,7/4,4/7,{16}5,5,8,8,4,4,
7,7,5,5,{32}8,1,2,3,4,5,6,7,{8}4/8v5[8:1],{16}2,3,{8}4/8<4[8:1],1,
8-3[8:1],3,{4}8/2<4[4:1],2/4,{8}8-3[8:1],8-5[8:1],
,,1,1,1v4[8:1],{16}7,6,{8}5/1>5[8:1],8,
1-6[8:1],6,{4}1/7>5[16:3],7/5,{8}6-1[8:1],5,
6,{16}4,5,6,7,8/4,1/5,{4}6/2w6[8:1],2,
{8}3/7,{24}7/3,6/2,5/1,{8}8/4<7[8:1],4,{4}4>1[8:1],4-8[8:1],
{16},,,,4,3,2,1,8b/6b,,,3,{8}3,6/4,
3/5,5/3,{4}2/6,{16}6b/4b,,,7,{8}7,2/8,
7/1,1/7,6/2,{32}1/5,6/2,7/3,8/4,{16}1/5,,,3,{8}3,{16}7,3,
6,2,5,1,{4}4h[8:1],{16}4,8,5,1,6,2,7,3,
{8}8,{16}4,6,{32}2,3,4,5,6,7,8,1,{8}2/7-5[8:1],5,7-1[8:1],4,
7-3[8:1],3,7>6[8:3],2,7/4,4,1,1,
2/7,6,5/4,{16}3,3,{8}6<8[8:1],8>2[8:1],2>4[8:1],4<6[8:1],
,,1-5[8:1],2,1/7-4[8:1],8v3[8:1],7,8,
{16},,2,6,8w4[8:1],4,2,6,{2}8>8[4:3],
{16},,,,,,2,3,{2}4,
E
