&title=初音ミクの消失
&artist=cosMo@暴走P
&first=0
&des=Dororo
&lv_6=14
&inote_6=(240)
{12},,,,,,,,,,,,
,,,,,,,,,,,,
1b-5[2:1]/7h[4:3],,,,,,,,,,,,
1b-5[2:1]/3h[4:3],,,,,,,,,,,,
1b-5[2:1]/7h[4:3],,,,,,,,,,,,
3h[8:3]/7h[8:3],,,,,,37,,,{16}8,1,8,1,
{12}8-4[2:1],,,3,,,2,,,1,,,
8-4[2:1],,,5,,,6,,,7,,,
{16}
8,,8,,2,,2,,6,,6,,4,,4,,
45,,,,{16}3,6,3,6,{16}3,,,,4b/5b,,,,
{12}
1,4,3,4,3,4,3,4,3,4,3,4,
2,5,4,5,4,5,4,5,4,5,4,5,
3,6,5,6,5,6,5,6,5,6,5,6,
4,3,2,8,7,6,3,2,1,7,6,5,
1,4,3,4,3,4,3,4,3,4,3,4,
2,5,4,5,4,5,4,5,4,5,4,5,
3,6,5,6,5,6,5,6,5,6,5,6,
4,3,2,8,7,6,5bw1[8:1],,,,,,
{16}
37,,,,8,,1,,8^5[8:1],,,,4,,3,,
2h[4:1],,,,6h[4:1],,,,4h[4:1],,,,5,,6,,
7-1[8:1],,,,3,,3-5[8:1],,,,8,,8,,,,
7^4[4:1],,,,4^1[4:1],,,,1^6[4:1],,,,6,,,,
4h[4:1],,,,6,,6h[4:1],,,,2,,2h[4:1],,,,
7,,7-3[8:1],,,,3,,,,2,,24,,,,
1/2-5[8:1],,,,,,,,7-4[8:1]/8,,,,,,,,
3,,3h[4:1],,,,5,,4,,5,,36,,,,
2-4[8:1],,,,8-6[8:1],,,,1-5[8:1],,,,5-1[8:1],,,,
7h[2:1],,,,,,,,2,,,,18,,,,
7-4[8:1],,,,4,,,,1-5[8:1],,,,5,,,,
8-4[8:1],,,,4,,,,2-5[8:1],,,,5,,,,
6h[4:1],,,,2h[4:1],,,,8h[4:1],,,,1pp5[4:3],,,,
,,,,5,,,,6,,,,7,,,,
8v3[8:1]*-4[8:1],,,,,,,,1v6[8:1]*-5[8:1],,,,,,,,
7,,7h[4:1],,,,4,,5,,36,,36,,,,
2-4[8:1],,,,1,,1,,2-4[8:1],,,,1,,,,
2-4[8:1],,,,1,,1,,2-4[8:1],,,,1,,,,
6h[4:1],,,,4,,4h[4:1],,,,8,,8h[4:1],,,,
1,,,,27,,,,36,,,,45,,,,
6-3[8:1],,6,,3,,,,2-7[8:1],,,,7,,,,
6-3[8:1],,6,,3,,,,2-7[8:1],,,,7,,,,
6h[4:1],,,,4,,4,,5,,,,36,,,,
2V48[8:3]/7V51[8:3],,,,,,,,,,,,,,,,
7-5[8:1],,,,8,,8,,7-5[8:1],,,,8,,,,
7-5[8:1],,,,8,,8,,7-5[8:1],,,,8,,,,
3h[4:1],,,,5,,5h[4:1],,,,1,,1h[4:1],,,,
8pp5[4:3],,,,,,,,4,,,,4,,,,
3-6[8:1],,3,,6,,,,7-2[8:1],,,,2,,,,
3-6[8:1],,3,,6,,,,7-2[8:1],,,,2,,,,
3h[4:1],,,,4h[4:1],,,,5h[4:1],,,,6h[4:1],,,,
2h[4:1],,,,4h[4:1],,,,5h[4:1],,,,7h[4:1],,,,
8,8,8,8,8b,,,,17,,,,2,,2,,
4,,3,,5,,4,,6,,5,,4h[4:1]/7h[4:1],,,,
,,,,1,,,,82,,,,7,,7,,
5,,6,,4,,5,,3,,4,,5h[4:1]/2h[4:1],,,,
,,,,8,,,,17,,,,2,,2h[8:5],,
,,6,,6h[4:1],,,,,,,,26,,,,
1>5[4:1],,,,5<1[4:1],,,,1>5[4:1],,,,5<1[4:1],,,,
1>1[2:1],,,,5,,,,1,,,,,,,,
2h[4:1]/4h[4:1],,,,,,3h[4:1]/5h[4:1],,,,,,46,,,,
3,,3,,7,,7,,1,,1,,28,,,,
7h[4:1],,5,,5,,6h[4:1],,4,,4,,5h[4:1],,3,,
3,,4h[4:1],,2,,2,,3b/8b,,,,1b/6b,,,,
45,,,,3,,3-6[4:1],,,,6-2[4:1],,,,2-7[4:1],,
,,7-3[4:1],,,,3,,,,5,,5,,4,,
6,5,4,3,6,5,4,3,{12}7h[256:1],8h[256:1],7h[256:1],8h[256:1],7h[256:1],8h[256:1],
{16}1bq2[2:1]/6bp7[2:1],,1b/6b,,,,,,,,,,,,,,
26,,,,3-5[8:1],,3,,5,,,,8-4[8:1],,1,,
8b^3[8:1],,,,8b^5[8:1],,,,8b,,,,3,,2,,
1-5[8:1],,,,17,,7-3[8:1],,,,47,,4h[4:1],,,,
5^8[8:1],,,,35,,,,5^2[8:1],,,,57,,,,
5bqq3[8:1]*pp7[8:1],,,,,,,,2p6[4:1],,,,6p2[4:1],,,,
2,,,,7,,7h[4:1],,,,3,,3h[4:1],,,,
5-8[8:1],,,,3-8[8:1],,,,4-8[8:1],,,,2,,2h[8:3],,
,,,,1,8,7,6,1-5[8:1],2,3,4,1b,,,,
73,,,,6-4[8:1],,6,,4,,,,1-5[8:1],,8,,
1b^6[8:1],,,,1b^4[8:1],,,,1b,,,,6,,7,,
8-4[8:1],,,,82,,2-6[8:1],,,,52,,5h[4:1],,,,
4^1[8:1],,,,46,,,,4^7[8:1],,,,42,,,,
4bv6[8:1]*v2[8:1],,,,,,,,7V13[4:1],,,,3V57[4:1],,,,
7,,,,1,,1-4[8:1],,,,17,,7-4[8:1],,,,
3bqq6[4:3]/7,,,,5,,,,5,,,,5,,,,
5,,5,,5,,5,,45,,45,,4b/5b,,,,
{12}
3,4,3,5,4,5,3,4,3,5,4,5,
3,4,3,6,4,6,3,4,3,6,4,6,
3,4,3,5,4,5,3,4,3,5,4,5,
2,4,2,5,4,5,2,4,2,5,4,5,
3,4,3,5,4,5,3,4,3,5,4,5,
3,4,3,6,5,6,3,4,3,6,5,6,
3,4,3,5,4,5,3,4,3,5,4,5,
1,2,3,7,6,5,2,3,4,5b/1b,,,
6,5,6,4,5,4,6,5,6,4,5,4,
6,5,6,3,5,3,6,5,6,3,5,3,
6,5,6,4,5,4,6,5,6,4,5,4,
7,5,7,4,5,4,7,5,7,4,5,4,
6,5,6,4,5,4,6,5,6,4,5,4,
6,5,6,3,4,3,6,5,6,3,4,3,
6,5,6,4,5,4,6,5,6,4,5,4,
8,7,6,2,3,4,7,6,5,4b/8b,,,
3,4,2,6,5,7,3,4,2,6,5,7,
3,4,1,6,5,8,3,4,1,6,5,8,
3,4,2,6,5,7,3,4,2,6,5,7,
2,4,1,7,5,8,2,4,1,7,5,8,
2,4,3,7,5,6,2,4,3,7,5,6,
1,5,3,8,4,6,1,5,3,8,4,6,
2,4,3,7,5,6,2,4,3,7,5,6,
1,5,3,8z4[4:1],4,6,,,,,,,
6,5,7,3,4,2,6,5,7,3,4,2,
6,5,8,3,4,1,6,5,8,3,4,1,
6,5,7,3,4,2,6,5,7,3,4,2,
7,5,8,2,4,1,7,5,8,2,4,1,
7,5,6,2,4,3,7,5,6,2,4,3,
8,5,7,1,4,2,8,5,7,1,4,2,
7,5,6,2,4,3,7,5,6,2,4,3,
8b,2,6,1b,7,3,1b,4,6,8b,5,2,
{16}
8<1[4:7],,,,,,,,,,,,,,,,
,,,,,,,,,,,,,,,,
8<1[4:7],,,,,,,,,,,,,,,,
,,,,,,,,,,,,,,,,
7<2[4:3],,,,1,,,,,,,,1,,,,
7<2[4:3],,,,8,,,,,,,,8,,,,
6^3[2:1],,,,1,,,,,,,,8,,,,
5b-8[4:1],,,,1,,1,,1h[4:1],,,,8,,,,
21,,21,,21,,21,,21,,21,,21,,21,,
28,,28,,28,,28,,28,,28,,28,,28,,
27,,27,,27,,27,,27,,27,,27,,27,,
26,,26,,26,,26,,26,,26,,2b/6b,,,,
1h[256:1],8h[256:1],1h[256:1],8h[256:1],1h[256:1],8h[256:1],1h[256:1],8h[256:1],1h[256:1],8h[256:1],1h[256:1],8h[256:1],1h[256:1],8h[256:1],1h[256:1],8h[256:1],
2h[256:1],8h[256:1],2h[256:1],8h[256:1],2h[256:1],8h[256:1],2h[256:1],8h[256:1],2h[256:1],8h[256:1],2h[256:1],8h[256:1],2h[256:1],8h[256:1],2h[256:1],8h[256:1],
3h[256:1],8h[256:1],3h[256:1],8h[256:1],3h[256:1],8h[256:1],3h[256:1],8h[256:1],3h[256:1],8h[256:1],3h[256:1],8h[256:1],3h[256:1],8h[256:1],3h[256:1],8h[256:1],
4h[256:1],8h[256:1],4h[256:1],8h[256:1],4h[256:1],8h[256:1],4h[256:1],8h[256:1],4h[256:1],8h[256:1],4h[256:1],8h[256:1],4b-8[8:1],,,,
7qq2[1:3]*qq3[1:4],,,,,,,,,,,,,,,,
,,,,,,,,,,,,,,,,
,,,,,,,,,,,,,,,,
,,,,,,,,,,,,,,,,
,,,,,,,,1s5[16:1],,,,,,,,
,,,,,,,,,,,,,,,,
,,,,,,,,,,,,,,,,
,,,,,,,,,,,,,,,,
E
