&title=Define
&artist=Zekk
&first=2.81
&des=Delineation of Alix
&lv_6=13+
&inote_6=(175)
{8}
3h[8:4],,,,4,4,,2,2hx[8:4],,,,E4,E5,E6,,
8,8h[8:3],,,5,5,,7,7hx[8:4],,,,E6,E5,E4,,8,8,6,6,4,4,2,2,8,71,
{8}
3h[16:1],3h[16:1],4h[16:1],4h[16:1],5h[16:1],5h[16:1],6h[16:1],6h[16:1],
{16}
3,4,3,4,2,5,2,5,4,7,4,7,5x,6,5,6,1x-5[8:1],8,2,7,1b<6[8:1]b,,,,,,,,
{8}
3h[8:2]/4,,2,2^7[8:1],,4,4-1[8:1],,6h[8:2],,7,7^2[8:1],,5,5<8[8:1],,3<6[8:1],,1,1qq6[8:3],,2,3,4>1[8:1],,,8h[8:2],,1,72,3-8[8:1]b/6,,5h[8:2],,6,6-1[8:1],,8,8<5[8:1],,2,2h[8:2],,4,4-7[8:1],,1x,,83,83,,2-4[8:1],4-6[8:1],2,7,8-4[8:1]b,,1,1,,
{16}
2/B6,,,8/E5,,,73,,1b>5[8:1]/5b,,,,
{8}8,8h[8:2],,7,6-1[8:1],,5h[8:2],,3,3>8[8:1],,4,4<7[8:1],,1-5[8:1],,8,8,,73,2/6p2[8:1],,1h[8:2],,8,8<5[8:1],,3,3,,1x>4[8:1]/4x,,8,8h[8:2],,6,5-1[8:1]b,,6-4-7[8:2],,2,2h[8:2],,8,83,,
{16}
4,5,,5,3,,3,7,,7,8,,16,,25,,3x/4x,,8,8,1,,72,,4-8[8:1],6,3,5,4b,,,,
{8}
7^2[8:1]/2,,3<6[8:1]/7,,3/8-4[8:1],,8/2<4[8:3]b,,{16}E2,E1,E8,E7,E6,E5,8hx[8:3],,,,,,1,,2,,3-8[8:1]/4-7[8:1],,,,34,,,,6-2[8:1]/5-1[8:1],,,,65,,,,8/3-1-7[8:2],,,,5,,5<3[8:3]b,,,,E6,E7,E8,E1,E2,E3,
{8}
4-8[8:1],,5,5-1[8:1],,7,7-3[8:1],,1h[8:2],,2,2-6[8:1],,4,4>1[8:2],,1<6[8:2],,6>3[8:2],,3,,A8/E1/A1,,
75,6,24,3,
7x-5-8[8:2],7,8-4[8:1],1,2-6[8:1]b,,C1,,8x-6-1[8:2],8,1-5[8:1],2,3-7[8:1]b,,C1,,
1x-7-2[8:2],1,2-6[8:1],3,4-8[8:1]b,,C1,,2x-8-6-4[8:2],2,4,3,2-6[8:1]b,,C1,,
{16}
8h[8:1],,,7h[8:1]/1h[8:1],,,6/2,,3x/5x,,4,6,1h[8:1],,7,5,8h[8:1],,3,4,2h[8:1],,6,5,8x,,8,,82,,8,,86,,8,,84,,8,,
2x,8,4,5,2,8,4,6,2,8,5,7,1,6,2,5,A3,,B3,,A7,,B7,,2q6[8:1],,8p4[8:1],,2,,8,,1b-5[8:10]*>5[8:10],,,,,,,,,,,,,,,,,,,,,,,,,,,,8xb-4[8:1],,,,8xb-6-4-6-8[8:10]*-2-4-2-8[8:10],,,,,,,,,,,,,,,,,,,,,,,,,,,,C1h[8:1],,,,
{8}3-6[8:1],3,7-4[8:1],7,2-6[8:1],2,1-5[8:1],1,8-4[8:1],8,7-3[8:1],7,1,1,8x/2x,,
{16}5x/4x,,3,4,1x,,6,5,7x,,3,4,1x,,82,,{8}4-8[8:1],5-1[8:1],4,5,{24}2x-8[8:1],3,4,7x,6,5,2x-6[8:1]b*-5[8:1],,,,,,2b<3[8:28],,,,,,,,,,,,,,,,,,,,,,,,,,,,,,,,,,,,,,,,,,,,,,,,,,,,,,,,,,,,,,,,,,,,,7-5-3[8:5]*-5-3[8:5],,,,,,,,,,,,,,,,,,,,,,,,,,,7b>6[8:24],,,,,,,,,,,,,,,,,,,,,,,,,,,,,,,,,,,,,,,,,,,,,,,,,,,,,,,,,,,,
2-4-6[8:4]*-4-6[8:4],,,,,,,,,,,,,,,,,,,,,,,,
{16}
1h[16:3],,,8h[16:3],,,7,,
{16}
2b>5[8:2],,,5,5<8[8:2],,,8,8>3[8:2],,,3,3<6[8:2],,,6,6-4-1[8:2],,,,,,,,8,,8h[8:2],,,,
7h[8:2],,,,
6,,5h[8:8],,,,E7/B7,,,,C1,,,,B2/E3,,,,E1/A1/A8,,,,
7h[16:3],,,6h[16:3],,,5,,4<7[8:2],,,7,7^2[8:2],,,2,2>5[8:2],,,5,5-3-8[8:3],,,,7h[8:4],,,,,,,,5,,5h[8:2],,,,6,,
{16}
3,4,,2,1,,8,7,,5,6,,74,,83,,1h[8:2]/2-5[8:1],,,,,,,,8,7,1,6,2,5,3,4,
{8}
2b-6[8:1],5,2-4-8[8:2],7,2,5<8[8:1],,5/1>4[8:1],,5-7-1[8:2]/1,,2>4[8:1]b,4-2-8[8:2]b,2,5,6,7-3[8:1],4,7-5-1[8:2],2,7,4>1[8:1],,8<5[8:1]/4,,8/4-2-8[8:2],,7<5[8:1]b,5-7-1[8:2]b,7,4,3,2-6[8:1],2,8,7-4[8:1],7,1,2-8[8:1]*-4[8:1],,,,7<4[8:1],,2^7[8:1]/7,,24,5,
6-1[8:1],5,6,3-8[8:1],4,3,6-1[8:1],5-2-4[8:2],6,5,,8<6[8:1]*>2[8:1],6v4[8:1]/2v4[8:1],,,,
8b-4[8:1],3,8-6-2[8:2],5,8,1-4[8:1],,1-6[8:1]/7,,4-2-8[8:2]/1,,5<7[8:1]b,7-5-3[8:2]b,5,3,2,
1-5[8:1],6,1-3-7[8:2],4,1,8<5[8:1],,8>3[8:1]/2,,8/5-7-1[8:2],,4>2[8:1]b,2-4-6[8:2]b,4,6,7,
{16}8b,,8,1,8,,8,2,8,,8,3,8,,84,,1x/5x,,1,6,1,,1,7,1,,1,8,1,,72,,5x/4x,,3,4,2h[8:1],,6,5,7h[8:1],,3,4,2,5,1,6,
{8}8-4[8:1],4-8<3[8:3]b,,,{16}E8,E7,E6,E5,E4,,,,{8}C1f,,,,,,,,6h[8:3],,,4h[8:2],,5,7b-3[8:1]b,,1b,1h[8:1],,82,8h[8:1]/2h[8:1],,37,3h[8:1]/7h[8:1],,15,1h[8:1]/5h[8:1],,6-1[8:1]/2-5[8:1],73,,,8x<5[8:1],8,4>1[8:1],4,7-3[8:1],7,8-4[8:1],8,1-5[8:1],1,2-6[8:1],2,8,8,7x/1x,,
{16}
35,,7,4,7,,2,5,2,,8,4,8,,62,,{8}84,73,2-7[8:1],6-3[8:1],2-5[8:1]b,6-1[8:1]b,,,C1f,,,,
