&title=HUMAN-LE
&artist=平沢進/核P-MODEL
&first=0
&des=NAZUNA -LIMITED-
&lv_5=12+
&des_5=NAZUNA -LIMITED-
&inote_5=
(125){8}6h[16:5],4,,,{4}4,{16}6h[16:3],,,4,
{8}4h[4:1],,,6h[4:1]/4h[4:1],{16},,,,4h[16:1],6,,,{8}3h[16:5],
5,,,{4}5,{16}3h[16:3],,,5,
{8}5h[4:1],,,3h[4:1]/5h[4:1],{16},,,,3b/5b,5b/3b,,,{8}3/5,
{16}3,6,{8}4,6/4,4h[8:1],6h[8:1],3h[8:1],5,
4h[4:1],2h[8:1],,2,{4}2-6[8:1],2,
{8}5/3,{16}3,4,{8}2,4/2,5h[8:1],3h[8:1],6h[8:1],4,
5h[4:1],7h[8:1],,7,{4}7-3[8:1],7,
{8}6/4,{16}6,3,{8}5,3/5,5h[8:1],3h[8:1],6h[8:1],4,
5h[4:1],7h[8:1],,7,{4}7-3[8:1],7,
{8}4/6,{16}6,5,{8}7,5/7,4h[8:1],6h[8:1],3h[8:1],5,
4h[4:1],2h[8:1],,5h[4:1],{4}1h[8:1],5/1,
{8}1>5[4:1],,,8,{4}8-4[8:1],3h[4:1],
{8}5,6,{4}7/3v5[8:1],7V53[4:1],{8}3,2,
{4}1h[4:1],5-7[8:1],5-2[8:1],{8}8,7,
{4}6h[4:1],4h[4:1],2-6[8:1],{8}3,2,
1s5[4:1],,,6,{4}6-1[8:1],6,
{8}3,5,4,6,{4}5>2[8:1],{8}5,6,
{4}7V53[4:1],3V16[4:1],6V48[4:1],3h[8:1],
3-8[8:1],{8}7,6,5/1,{16}2,4,{8}2,5,
{4}5pp8[8:5],{8}3,2,{4}1-4[8:1],1,
{8}3>5[2:1],,,6,7,8,{4}1p6[2:1],
4h[8:1],{8}3,2,{4}1V35[4:1],{8}8,7,
{4}6V82[4:1],4h[8:1],4-7[8:1]*-8[8:1],4,
1>7[2:1],{8}5,6,7pp4[2:1],,,4,
{4}4V28[4:1],{8}5,6,{4}7v4[8:1]*p3[8:1],7,
{8}5h[4:1]/2h[4:1],,,5/2,{2}5v2[8:1]/2p5[8:1],
{8}6h[4:1]/4h[4:1],,,6/4,{2}6-2[8:1]/4v7[8:1],
{8}3/5,{16}3,5,{8}3,5/3,2-6[8:1],6-1[8:1],{4}2,
{8}5V37[4:1],2h[8:1],,2,{4}2-6[8:1]*-7[8:1],2,
{8}3/5,{16}3,5,{8}3,5/3,3-7[8:1],5-8[8:1],3,5,
1V35[4:1],7h[8:1],,7,{4}7-3[8:1]*-2[8:1],7,
{8}6/4,{16}6,4,{8}6,4/6,7-3[8:1],3-8[8:1],{4}7,
{8}4V62[4:1],7h[8:1],,7,{4}7-3[8:1]*-2[8:1],7,
{8}6/4,{16}6,4,{8}6,4/6,6-2[8:1],4-1[8:1],6,4,
8V64[4:1],2h[8:1],,2,{4}2-4[8:1]*-6[8:1],2,
8V63[4:1],{8}3,2,{4}1v4[8:1],{8}4,5,
6,7,3/8-4[8:1],2,{4}1V36[4:1],{8}6,7,
{4}8-2[8:1],8-6[8:1],8/4qq1[8:5],{8}4,5,
{4}6-3[8:1],6,8v3[8:1],{8}4,5,
6V47[4:1],,,3,{4}3-8[8:1],3,
{8}6,4,5,3,{4}4q8[8:1],{8}4,3,
{4}2>6[4:1],6V83[4:1],3V51[4:1],{8}5,6,
7-2[8:1],2,3,4,5/1,{16}8,4,{8}8,7/3,
{4}4pp1[8:5],{8}6,7,{4}8-4[8:1],8,
{8}6<4[2:1],,,3,2,1,{4}8q2[2:1],
5h[8:1],{8}6,7,{4}8z4[4:1],{8}1,2,
{4}3V16[4:1],5h[8:1],5w1[8:1],5,
8<2[2:1],{8}4,3,2pp7[2:1],,,7,
{4}7V51[4:1],{8}4,3,{4}2w6[8:1],2,
{8}4h[4:1]/8h[4:1],,,4/8,{2}8q5[8:1]/4-7[8:1],
{8}3h[4:1]/5h[4:1],,,3/5,{2}5q1[8:1]/3v6[8:1],
{1}4h[4:3]/8h[4:3],
6h[4:3]/2h[4:3],
3h[4:3]/5h[4:3],
{4}4V28[4:1]*V68[4:1],{16},,,,,,,,7b/1b,7b/1b,,,{8}2V46[4:1],
{16}2,6,{8}2,8,{4}8-4[8:1],{8}4,3,
{4}2h[4:1],{8}5V73[4:1],4,3-7[8:1],2h[16:1],2,2,
{4}2>7[4:1],{8}7V51[4:1],8,{4}1V35[4:1],{8}8,7,
{4}6pp1[2:1],{8}2,3,{16}4,,,3,{8}3,2b,
{16}8-3[8:1],,,4,{8}8-5[8:1],4,{4}8/4-1[8:1],{8}6,7,
{4}8V63[4:1],3V15[4:1],{16}5<2[4:1],,,4,{8}4,4b,
{4}4V28[4:1],{8}8,6,{4}4V61[4:1],{8}1,2,
{4}3p2[2:1],6h[8:1],{16}6,,,7,{8}7,7,
7V53[4:1],{16}7,3,{8}7,1,{4}1-5[8:1],{8}5,6,
{4}7h[4:1],{8}4V26[4:1],5,6-2[8:1],7h[16:1],7,7,
{4}7<2[4:1],{8}2V48[4:1],1,{4}8V64[4:1],{8}1,2,
{4}3qq8[2:1],{8}7,6,{16}5,,,6,{8}6,7b,
{16}1-6[8:1],,,5,{8}1-4[8:1],5,{4}1/5-8[8:1],{8}3,2,
{4}1V36[4:1],6V84[4:1],{16}4>7[4:1],,,5,{8}5,5b,
{4}5V71[4:1],{8}1,3,{4}5V38[4:1],{8}8,7,
{4}6pp2[2:1],3h[8:1],{16}3-5[8:1],,,3,{8}3,1,
8/4,{16}5,7,{8}5V31[4:1],6/4,{4}7h[8:1],{8}7pp4[2:1],2,
{4}2h[8:1],{8}3-7[8:1],3,{16}3,,,5,{8}1/5pp8[2:1],2,
{4}3h[8:1],{8}3,2,{4}1>6[8:3],{8}4,6-8[8:1],
{4}8V24[4:1],{8}5,5,{16}5-1[8:1],,,3,{8}5,3,
{16}8-4[8:1],,,2,{8}2pp6[2:1],1,{4}5h[8:1],{8}6,7,
{4}8-4[8:1],8/2-5[8:1],{16}2,,,6,{8}6,8/5,
{4}5h[8:1]/8pp5[2:1],{8}5,4,{4}3-7[8:1],3,
{8}8/6,{16}7,5,{8}6,{16}5,3,4-7[8:1],,,2,{8}4,2b,
1/5,{16}4,2,{8}4V68[4:1],3/5,{4}2h[8:1],{8}2qq5[2:1],7,
{4}7h[8:1],{8}6-2[8:1],6,{16}6,,,4,{8}8/4qq1[2:1],7,
{4}6h[8:1],{8}6,7,{4}8<3[8:3],{8}5,3-1[8:1],
{4}1V75[4:1],{8}4,4,{16}4-8[8:1],,,6,{8}4,6,
{16}1-5[8:1],,,7,{8}7qq3[2:1],8,{4}4h[8:1],{8}3,2,
{4}1-5[8:1],1/7-4[8:1],{16}7,,,3,{8}3,1/4,
{4}4h[8:1]/1qq4[2:1],{8}4,5,{4}6-2[8:1],6,
{8}1/3,{16}2,4,{8}3,{16}4,6,5-1[8:1],,,7,{8}5,7b,
{1}7bh[1:2],
E
