&title=Serene Electric
&artist=树菌树茵树菌
&first=1.29
&des_1=磷化锆
&des_2=磷化锆
&des_3=磷化锆
&des_4=磷化锆
&des_5=磷化锆
&lv_5=14+
&des_6=磷化锆
&des_7=磷化锆
&des=磷化锆
&inote_5=(47.5){8},,1-6v3[4:1],1v3[8:1],{4}1h[32:1],
{8}5-2v1[4:1],5-1[8:1],{4}5h[32:1],{8}7-2v8[4:1],7v8[8:1],{4}7h[32:1],
{8}3-6v5[4:1],3v5[8:1],{4}3h[32:1],{8}8-6-4[4:1],6-4[8:1],{32}8h[32:1],,,,,,,1,
{8}1>5[4:1],3<5[8:1],{4}1h[32:1],{8}1-7-5[4:1],7-5[8:1],{16}1h[32:1],{32},,,,3,2,
{8}1<5[16:3],{32}5>3[16:1],,,3>2[32:1],{4}3,{32}6V85[16:3],7,,5,,4,,,2,2,,4,3,2,1,1,
2/4v3[8:1],3,,5v8[32:3],,6,,,4/7,7,,5,,,1,2,{64}7V13[16:3],6,5,4,{32}3,{64}8x,7x,{32}6x,{64}1x,8x,{32}7x,{64}2x,1x,{32}8xh[32:1],,,5h[16:1],,,,,4V68[8:1],
2,,3,3,5,,,,,,,1,3,5,7,2-5[16:1],2,,6-3[16:1],,7,,8,8,,,7,8,1,8,7,
6/2-5[16:1],1,,5v8[16:1],,6,,7,{16}7h[32:3],{32},,,,6,5,{64}8V64[16:3],1,2,3,{32}4,{64}7x,8x,{32}1x,{64}6x,7x,{32}8x,{64}5x,6x,{32}7xh[32:1],,,1h[16:1],,,,,2-5v4-7[4:1],
2h[16:5],,7,,8,,1,,,,,3b,{64}3b,2,{16}1h[32:1],2-4[32:1],{32}7,6,{8}5/3-1[32:1],{32}2/6,{64},,,,7,6,{32}5/3,,,7,
2/7-5[32:1],8,1,8,7/5V71[8:1],,,4,3/7,2,,,,,,,4v5[32:1],,,6,6-3[32:1],,,7,4/8,7,,,6/1,,,4,
7/3-5[32:1],2,4,3,1/2-5[32:1],,,8,8/3>2<1<8<7<6[8:3],,,8,2/1,8,{64}7,5,{32}7,{4},{16},{64},,{96}4,3,2,{32}1-6[32:1],,,5,
6-3[32:1],7,5,6,7/1<4[8:1],,,3,6/2,1,,,,,,,3-1[32:1],,,5,{16}6/2-4[32:1],{32}8,7,3/6,5,,6,2/7,,,4,
3/6-1[32:1],2,4,3,2/7-4[32:1],,,3,6/3,3h[16:1],,,7/2,2,,,3pp8[8:1],4,,7,8>5[8:1],8,,,3/5<5[16:3],,,5,,6,,,{4}6pp1[8:1],
{32}6/4,4,,3h[32:3],,,{16}6h[32:1],{64}1qq1[8:1],2,3,4,{32}5,{64}7,8,{32}1pp2[8:1]*p5[16:1],{64}6,7,{32}8,{64}5,6,{4}7h[32:1],
{32}7V15[8:1],6,5,4,5V74[8:1],3,,,{8}4h[32:3]/7>5<7[8:3]*>5[24:5],{32}2,3,2,1,{4},{16},{64},,{96}8,1,2,{8}3V58[8:1]*-1[32:1],
4/8V26V47[4:1],{32}3,,,1,2,3h[16:1],{64},,,,,,,,3,2,1,8,1-7v4[8:1],2,3,4,{32}5,{64}7,8,{32}1V36[8:1],{64}6,7,{32}8,{64}5,6,{4}7h[32:1],
{8}5>3<4>3<4>3<4>2[16:3]*<8[16:1],5,5-1[32:1],{32}5-7[32:1],5,,,{8}2V48[16:1],2-6[32:1],{32}7-5[32:1],,,7,7-3[32:1],,,4,
4,4,,2,2,2,,6,6-1[32:1],6,,8,{16}8-4[32:1],{64}4,5,4,5,{32}3/6-2[32:1],,,3,3-7[32:1],,,5,5,,,2,{16}2,{32}1,4,
4,8/4,,6,6-1[32:1],6/2,,1,{8}4/2-4[32:1],{16}6/5v2[32:1],{32}8,8,2/8-4[32:1],,,8,8V63V57[8:1],,,3,3,,,2,2,2,,1,
1,1h[16:1],{64},,6,5,{32}7,7h[16:1],,1,8/2-5[32:1],8,7,6/4,3/5-7[32:1],2,{64}8,1,8,1,{32}2/7-3[32:1],7,,3,3-8[32:1],,,1,1,1,,5,5,5,,7,
7/5,6h[16:1],{64},,3,4,{32}2,2h[16:1],{64},,8,7,{32}6/1V38[16:1],2,4,5,3/6-4[32:1],8,2,4,1/7-4[32:1]*-3[32:1],7,{16}7,{32}6/3-7[32:1]*-8[32:1],3,{16}3,{8}7V15[16:1],3-6[32:1],
{32}7/4-8[32:1]*V25[16:1],4,{16}4,{32}3/6qq7[32:3]*qq1[32:3],6,{16}6,{32},,,,,,,,2-5[32:1]*-7[32:1],2,{16}2,{32}6-3[32:1]*-1[32:1],6,{16}6,{8}2V84[16:1],6-2[32:1],
{32}2/5-1[32:1],5,{16}5,{32}2/6,2,{16}2,{32}6/5,6h[16:3],,,8,5,3,1,7-3[32:1],7,6,5,4-1[32:1],3,{16}2,{32}4V62[16:1],5,{16}6,{32}8,7,6,7,
8V61[16:1],1,{16}1,{32}4V63[16:1],5,{16}5,{32}2,2,2,2,{16}1,{64}7,8,1,8,{32}7/2-6[32:1],3,4,5,5-8[32:1],6,{16}7,{32}5V37[16:1],4,{16}3,{32}1V36[16:1],2,3,2,
1V38[16:1],8,{16}8,{32}5V37[16:1],4,{16}4,{32}7,7,{16}7,{32}8,{64}8,1,{32}2,2,{8}3/8-6[32:1],2-4[32:1],{32}4,{64},,,,6,7,{8}8,
{32}8-6[32:1],7,4,3,2-4[32:1],,,1,1,1,,,8,8,,,6-8[32:1],,,4,4-2[32:1],,,2,2,2,,6,{8}6,
{32}6-8[32:1],7,2,3,4-2[32:1],,,5,5>5[16:7]*p4[4:1],5,,,6,7,{64}8,2,{32}8,{4},{16},{64},,{96}4,3,2,{8}1h[32:3],
{32}2-5[32:1],3,8,7,{8}6-1[32:1],{32}1,1,,5,5,5,4,3,8-6[32:1],7,2,1,{8}5/8-2[32:1],{32}2/8V64[16:1],1,,,{8}5/8-5[32:1],
{32}2/8-3[32:1],2,1,1,{8}8-2V46[32:3]*V64[32:3],8-4[16:15],8,{32}2V41[32:5],,,3,{8}3,{4}2,
{32}5,6>4[16:1],,6<7[32:1],6,,,2-6[32:61],6,6,,,,,,,4,3V52[32:5],,4,{8}4,{32}3,3,,,,,,,6,
7<5[16:1],,4,{8}4,{32}7,,,,,5,{64}3,4,{32}3,{8}1>5[32:5]*>3[64:5],1,{4}1,
{8}5>7[64:13],5,{4}5,{8}8>4[16:3]*>2[32:3],8,{32}6,6h[32:3],,,,,,5,
{8}5p1[32:3],{32}5<6[32:1]*>4[32:1],,,5,5,,,5,
E
