&title=さよなら12月 feat. 歌愛ユキ,GUMI,カゼヒキβ
&artist=GESO
&first=-1.41
&des=仙彗星座
&lv_5=14
&inote_5=(83)
{1},
{4}1,,2,,3,,4,,8,,7,,6,,5,,
{8}1,8h[8:1],,,1,7h[8:1],,,1,6h[8:1],,,1,5h[8:1],,,8,1h[8:1],,8,8,2h[8:1],,8,8,3h[8:1],,8,8,4h[8:1],,8,8qq7[8:2],,1,,2qq1[8:2],,3,,4qq3[8:2],,5,,6qq5[8:2],,7,,
{8}8q1[8:2],,1,,4q5[8:2],,5,,7p6[8:2],,6,,3p2[8:2],,2,,
{8}8v2[8:2],1,2,3,4v6[8:2],5,6,7,8<5[8:1],1,8p4[8:1],2,8q4[8:1],1,8>3[8:1],1,7/8p6[8:2],,4p2[8:2],,4<8[8:2],,4qq4pp4[8:4],,,,,,
{8}8h[8:1],7h[8:1],6h[8:1],5h[8:1],
{16}1>5[16:4],2>5[16:3],3<5[16:2],4<5[16:1],,,,,1<8[16:4],2<8[16:3],3>8[16:2],4>8[16:1],,,,,5<1[16:4],6<1[16:3],7>1[16:2],8>1[16:1],,,,,5>4[16:4],6>4[16:3],7<4[16:2],8<4[16:1],,,,,
{8}1-5[8:1],2,3-7[8:1],4,5-1[8:1],6,7-3[8:1],8,1w5[16:3],,,,Cf,,
{16}8>3[8:2],8,,,
{4}3<6[8:2],6<1[8:2],1>4[8:2],4<7[8:2],7>3[8:2],3<7[8:2],7>3[8:2],3<7[8:2],7>7>7>7[8:8],,,,3<3<7b[8:2],,1h[8:4],,
{32}8,7,6,5,
{64}8,7,6,5,4,3,2,1,
{32}8<4[8:1],7<3[8:1],6>2[8:1],5>1[8:1],8,7,6,5,8bx-4[16:1],,,,7x,,,,8x,,,,2x/6x,,,,
{32}1,2,3,4,
{64}1,2,3,4,5,6,7,8,
{32}1>5[8:1],2>6[8:1],3<7[8:1],4<8[8:1],1,2,3,4,1bx-5[16:1],,,,2x,,,,1x,,,,7x/3x,,,,
{48}8,7,6,5,4,3,2,1,8,7,6,5,
{32}4/8-4[16:1],,,,2-4[16:1]/6-8[16:1],,,,48,,,,6-4[16:1]/2-8[16:1],,,,4,,,,26,,,,
{48}1,2,3,4,5,6,7,8,1,2,3,4,
{8}5/1-5[8:1],3/7-3[8:1],1-3[8:1],7-5[8:1],1,7,
{48}1,8,7,6,5,4,3,2,1,8,7,6,1-4[16:1]/5-8[16:1],,,,,,37,,,,,,
{8}1-6[16:1]/5-2[16:1],37,15,4/8h[8:1],
{64}4,3,2,1,8,7,6,5,4-8[16:1],,,,2h[16:3]/6,,,,,,,,,,,,4,,,,,,,,
{8}1-5[16:1]/7-3[16:1],8-4[16:1]/2-6[16:1],17,28,
{64}8,7,6,5,4,3,2,1,
{32}8<4[8:1],7<3[8:1],6>2[8:1],5>1[8:1],1h[8:1],,,,8,,,,C,,,,
{8}8-4[16:1],26,8,
{64}1,,8,,7,,6,,51,8,47,6,35,,2,,1,,8,,7,,6,,51,8,47,6,35,,2,,
{32}1/5x<4[8:2],6x<4[32:7],7x>4[32:6],8x>4[32:5],5x,6x,7x,8x,5x,6x,7x,8x,5x,6x,7x,8x,
{8}1bxqq7qq5qq3qq1-3-5-7-1>1b[4:14],,A7,,A5,,A3,,A1,,A7,,A5,,A3,,A1,,A7,,A5,,A3,,1<5[8:4],,,,,,,,
{16}6x>2[8:2],5x>1[8:2],4x>8[8:2],3x>7[8:2],B6,B5,B4,B3,6x,5x,4x,3x,B6,B5,B4,B3,
{16}3x<7[8:2],4x<8[8:2],5x<1[8:2],6x<2[8:2],B3,B4,B5,B6,3x,4x,5x,6x,B3,B4,B5,B6,
{16}7-5[8:1],8,1,2,7-4[8:1],8,1,2,7-3[8:1],8,1,2,7<7[4:2],8,1,2,1,8,7,6,5,4,3,2,1xs5[1:1]*z5[1:1],
