&title=Sweet & Sour
&artist=Sakuzyo or Sobrem
&first=0.055
&des=SeBiAn-A
&clock_count=4
&lv_5=14+
&inote_5=(170){16},,,,,,,,,,,,,,,
Ch[16:1],
{48}3,4,5h[48:35],,,,
{16},,,,,,,,,,,,,E7h[16:1],
{48}2,3,4h[48:35],,,,
{16},,,,,,,,,,,,
2`C,,
1h[16:1]/7h[8:1],,,
6h[16:1]/4h[8:1],,,
2h[16:1]/8h[8:1],,,
3h[16:1]/5h[8:1],,,
1h[16:1]/7h[8:1],,,
6h[16:1]/4h[8:1],,,
5-1[12:1],,,2-4[12:1],,,
7h[16:3],,,,
5>1[8:1],,6,,7p4[2:1],,,,,,,,,,,,,,,,
1,,1>5[8:4],,,,,,7-3[8:1],,,,7,,,,,,
5p3[8:4],,5,,,,8<6[8:1],,8,,,,,,
2,,6,5,,3,4,2,,2,,7,8<5[8:1],,8/1,,
2-7[8:1],,3,,4,,5,,6-2[12:1],,,6/7,,,,,
8>3[12:1],,,8/2,,,,,4>1[12:1],,,4/6,,,
5,,7-5[8:1],,,,1-5[8:1]/7,,,,1/3q5[4:1],,,3,,,,,
8,7,6,3,4,2,8,1,2-5[8:1]/7-4[8:1],,,,2b/7b,,,,
3,4,3,,5,4,5,,6,5,6,3,4,5,
7,8,7,,1,8,1,,2,1,2,3,4,5,8,7,6,5,
2,3,2,,3,4,3,,5,4,5,2,3,4,
7,6,7,,6,5,6,,5,4,5,2,4,2,6,5,7,8,
7-4[8:1],,8,,1,,2,,3-7[12:1],,,4/5,,,,,
6>3[12:1],,,5/7,,,1,,1<6[12:1],,,2/8,,,,,
5-8[8:1],,4,,3,,2,,1>4[12:1],,,8/6,,,,,
8,7,6,3,4,2,8,1,2-5[8:1]/7-4[8:1],,,,2b/7b,,,,
3/6>3[8:1],,3/6,,,,2<7[8:1],,2,,,,
6,,6,,
8/7,,6,5,,3/4,,2,1>4[8:1],,7/8,,,,
6<8[8:1],,5/6,,,3<5[8:1],,,1-5[8:1],,,,
3q5<7[8:6],,3h[8:4],,,,,,,,,,,,
4-8[8:1],,,,4,,,,
7-2[8:1],,7,,6,,5,,5<8[8:1],,1,,2-5[8:1],,2,,
1,,8,,8>3[8:1],,3,,4v7[8:1],,4,,5,,5,,
6-2[8:1],,6,,,,,,,,
1,2,1,,3-7[8:1],,4,3,4,,
5<8[8:1],,5,,,,1-5[8:1],,2,,3,,4q6<1[8:5],,4h[8:7],,,,,,,,,,,,,,,,
8,4b,3,2,1/8b,7,6,5,7b/4,8,1,2,3bz7[8:2]/8bs4[8:2],,,,,,,,,,
8,7,6,5,4h[8:1]/3,,,,2/1,,8,7,6,5,4/3,,
{24}5,4,5,
{16}4,,
3/6,,3/6,,
7,5,6,4,6,5,7,4,5,4,5,3,4,2,4,3,5,
3,4,2,4,3,5,4,6,2,7,1,8,4,6,3,7,
2,8,5,3,6,2,7,1>4[8:1],,1,,6-2[8:1]/1,,,,
6/5-1[8:1],,5,,5/8<5[8:1],,,,1w5[8:1]/8,,,,1,,,,
7-4[8:1],,4,,3,,2,,1<6[8:1],,,2/6,,,,,
8-5[8:1],,5,,4,,3,,2>5[8:1],,,1/4,,,,,
8-5[8:1],,5,,4,,3,,2>5[8:1],,,1/5,,,
8,,8,,1,5,1,5,1,5,1<6[8:1],5,1,5,1,,,,
4<7[8:1],,3,,2,,1,,8>3[8:1],,7,,6,,5,,
4-7[8:1],,3,,2,,1,,8-3[8:1],,7,,6,,5,,
4,3,4,3,4,3,4,3,4<7[8:1],3,4,3,4,,,,
1,2,3,6,5,7,1,8,7-4[8:1]/2-5[8:1],,,,7b/2b,,
{48},,,,,
6>6>3[8:22],
{16}3,,,,,,,,,,,,,,,,,,,,
,,,,,,,,,,,,Ch[8:16],,,,,,,,,,,,,,,,,,,,,,,,,,,,,,,,
8<8<5[8:22],,,,,,,,,,,,,,,,,,,,,,,,,,,,,,,,Ch[8:16],,,,,,,,,,,,,,,,,,,,,,,,,,,,,,,,
5,,
{24}1,2,3,
{16}4,6,5,6,,7/2,,,3,4,3,5,4,5,2,4,2,6,4,6,5,7,5,7,
2,4,3,5,4/E7,,,5/E1,,
2,5,3,6,4,7,5,
8,4,7,3,6,2,5,1,
4,8,4,1,4,2,4,3,
5,4,5,4,5/E3,,,8/E5,,
7,1,7,1,6,2,6,2,5,3,5,3,
6,4,6,4,7,3,7,3,8,2,8,2,,
1-5[8:1],,,,1bV36[8:3]*V74[8:3]/Cf,,,,,,,,,,,,
Cf/B7/B6/B2/B3,,,,,,,,,,
4,5,4,5,3,6,4<4[8:5]/Cf,,,,,,,,,,,,,,,,,,
4,5h[8:1],,4,5,3,4,
{48}3,2,1,
{16}5,,6,,7,4,7,5,
6,5h[8:1],,6,5,7,5h[8:1],,8,,
7,5,7,4,7,3,7,2,7,1,6,8,6,1,6,2,6,3,6,4,6,5,
6,5h[8:1],,6,5,6,4,5h[8:1],,4,5,3,4h[8:1],,
3,5,4,6,5,7,2,4,3,6,5,7,2,4,3,,4/6,,
7<4[8:1],,8,,1,,2,,3v8[8:1]*q7[8:1],,,3,3,,,,
6v1[8:1]*p2[8:1],,,6,6,,,,
7v4[8:1]*q3[8:1],,,7,7,,,,
7-5[8:1],,,,1-5[8:1]/7,,,,1/3q5[4:1],,,3,,,7,,
8<6[8:1],,,,8/4-8[8:1],,,,2q5[4:1]/4,,,2,,,8,,
8>3[8:1],,7,,6,,5,,4<7[8:1]*v1[8:1],,,3,4,,,,
8>3[8:1]*v5[8:1],,,1,8,,,,2v7[8:1]*<6[8:1],,,2,2,,,,
4>1[8:1],,5,,4/6,,7,,8v5[8:1]*v3[8:1],,,1,8,,,,
1,2,3,6,5,7,1,8,2v5[8:1]/7v4[8:1],,,,2b/7b,,,,
7,,6,,5,,4,,3h[8:1],,4-6[12:1],3,,,2,,
2h[8:1],,7,2-4[12:1],,,7,,7h[8:1],,5-3[12:1],7,,,,,
6,,7,,8,,1,,2h[12:1],,1-7[12:1],2,,,3,,
3h[8:1],,6,3-1[12:1],,,6,,6h[8:1],,8-2[12:1],6,,,,,
7,,6,,5,,4,,3h[8:1],,4-6[12:1],3,,,2,,
2h[8:1],,7,2-4[12:1],,,7,,7h[8:1],,5-3[12:1],7,,,6,,
6h[8:1],,2>4[12:1],6,,,7,,7h[8:1],,5>2[8:1],7,,,6,,
6h[8:1],,1q5[8:1],6,1,,8,,7,,
6,5,7,4,5,,
2/6>4[12:1],,7,,8,,1,,2-6[8:1]*-8[8:1],,3,4,2,,,,
8-4[8:1]*-2[8:1],,6,5,8,,,,3-1[8:1]*-7[8:1],,4,5,3,,,,
8-4[8:1],,7,,2-5[8:1]/8,,1,,2/6-8[8:1]*-2[8:1],,,6,6,,,,
1,2,3,6,5,7,1,8,2v5[12:1]/7<4[12:1],,,,2b/7b,,
3x`6x>6[16:30],,,,,,,,,,,,,,,,,,,,,,,,,,,,,,,,,,,,,,
4,,6,5,6p4[8:6],,,,,,,,,,,,,,,,,,,,2,,3,,
4/5,,6,5,7,3,4,2,7,5,8,,
1/7,,2,4,3,7,5,6,3,4,2,,
5,,4/6,,7,5,5,4,
6<1[8:1],,5/7,,4/6,,5,,3-7[8:1],,2,,3/1,,1,,
6/8<5[8:1],,1,,2/8,,1,,3-7[8:1],,4,,3/5,,5,,
6<1[8:1],,,,4/6,,,,5,,3,,4,,2q4-6^8V24[8:11],,,,,,,,,,,,,,,,,,,,,,,,,,,,,,5,4,6,,
{32}1,2,3,4,7,6,5,,
{24}1,8,1,8,1,,
7-3[8:1]/2>1[8:3],,,,,,7b/2b`Cf,,,,
E
&inote_6=
