&title=Quadruplicity
&artist=LucaProject/NeLiME
&first=0
&des=XM_Dresk
&lv_5=14+
&inote_5=(157)
{4},,,,,,,,{128},
{4}
4h[4:7]/E6,E7,E8,E1,E2,E3,E4,E5,
4h[4:5]/A6/B6,A7/B7,A8/B8,A1/B1,A2/B2,A3/B3,A4/B4,5-7-4-8[4:3],
4,4,3,2-5-3-1[4:3],8,8,7,6-4-7-1[4:3],2,2,3,4-8-2-5[4:3],8,7,6,7,
48,4/8h[4:5],
{32}
A2,A3,A4,,,,,,A3,A4,A5,,,,,,A2,A3,A4,,,,,,A1,A2,A3,,,,,,A2,A3,A4,,,,,,
{4}3,26,2h[4:5]/6,
{32}
A7,A6,A5,,,,,,A6,A5,A4,,,,,,A7,A6,A5,,,,,,A8,A7,A6,,,,,,A7,A6,A5,,,,,,A8,A7,A6,,,,,,
{4}
15,2/6h[4:2],
{32}
A1,A2,A3,,,,,,A2,A3,A4,,,,,,
{4}
3h[4:3]/7-1[8:1],,
{32}
A8,A7,A6,,,,,,A7,A6,A5,,,,,,
{16}
4,,4,,35,,35,,2,6,2,6,1,7,1,7,1h[4:1],,
{24}
8,7,6,5h[8:1],,,
{8}
3,24,
{24}
5,6,7,
{16}
8v5b[12:1]*v3b[12:1],,,,8b,,,,
26,,7,,48,,3,,2,4,,3,5,,46,,7,5,,6,4,,35,,2,4,3,5,2h[8:1],,
8,,57,,4,6,3h[8:1],,5,,2,4,,3,5,,64,,7,5,,6,4,,35,,2v5[8:1],8,4,6,2b,,
7,,46,,3,5,2h[8:1],,8,,7,5,,6,4,,35,,2,4,,3,5,,46,,7,5,6,4,7h[8:1],,
2,,35,,6,4,7h[8:1],,3,,7,4,6,3,8h[4:1],,
{24}
5,4,3,
{16}
2h[8:1],,7,,8/6h[8:1],,
{24}
1,2,3,
{16}
5/4-8b[8:1],,,,
3/4b,,,,
A8,A7,A6,A5,2b,4,3,4,3,4,3,4,1b,4,3,4,3,4,3,4,8b,4,3,4,3,4,3,4,
3b,2,1,8,5,6,7,8,2,3,4,5,8,7,6,5,2,4,3,5,4,6,5,7,4,3,2,1,5,6,7,8,
1-5b[8:1],1,1,1,1b,,,,3b/7,,4h[8:1],6,,4h[8:1],8,,4h[8:1],2,,4h[8:1],8,,
3h[8:1],7,,2h[8:1],6,,1>4[8:1],5,1,5,1b,,6,5,7h[8:1],,2,1,3,8,4,,
6-1[8:1],5,7,5,6b,,
{24}
2,3,4,
{16}
5h[8:1]/8,,7,,4h[8:1]/6,,
{24}
5,6,7,
{16}
8-4b[8:1],,,,
8b-6-2-4[8:3]/2,,,,5h[4:1],,,,,,,,35,,26,,1/7-5[12:1],,,,,,
2,3,4h[4:1]/5,6,7,8,1-6b[8:1],2,3,4,5/1-5[8:1],,,,1-4b[8:1]/2,,,,1/7-3[8:1],,,,37,,,,
25,,6/4h[8:1],,7,5,6,4,8-4[8:1],,7,,38,,2,,1qq8[4:1]/5,26,37,,,,,,,,
1,7,2,6,3,5,4-1[8:1],,3,,7-3[8:1],,6,,2-5[8:1],,1,,8,,7,,
46,7/3q5[16:4],2/8h[4:1],,,,,,,,
7,4,6,3,5,2h[16:5],4-8[8:1],,,,4,,
{32}
1,2,3,4,
{8}
5/7b,6,8b/4h[4:1],,
{48}
8xh[512:1],E8,,,{12}
3,3,{48}
6xh[512:1],B6,,,{12}
4,4,{48}
2xh[512:1],B2,,,{12}
3,3,{48}
7xh[512:1],E7,,,{12}
2,2,{48}
5xh[512:1],B5,,,{12}
3,3,{48}
1xh[512:1],B1,,,{12}
4,4,{48}
5x-1[8:1],,,,{12}
3,7,5x,,,
{48}
1xh[512:1],E2,,,{12}
6,6,{48}
3xh[512:1],B3,,,{12}
5,5,{48}
7xh[512:1],B7,,,{12}
6,6,{48}
2xh[512:1],E3,,,{12}
7,7,{48}
4xh[512:1],B4,,,{12}
6,6,{48}
8xh[512:1],B8,,,{12}
5,5,{48}
4x-8[8:1],,,,{12}
6,2,4x,,,
{12}
1xh[512:1]/7,6,3,
2xh[512:1]/4,1,8,
3xh[512:1]/7,6,4,
3xh[512:1]/5,6,2,
1xh[512:1]/7,2,8,
1xh[512:1]/3,4,8,
5xh[512:1]/7,4,6,
3xh[512:1]/5,2,4,
3xh[512:1],5,4,
6xh[512:1],5,7,
4xh[512:1],6,3,
5xh[512:1],2,4,
1xh[512:1],5,3,
7xh[512:1],5,1,
{16}
2,8,7/3h[8:1],,8-4[8:1],1,7,2,
{4}
8bz4-6-2-8b[4:13]*s4-2-6-8[4:13],,,,,,,,,,,,,,,,
6h[4:3],B5,B3,B7,1h[4:3],E8,B2,B5,7h[4:3],E6,E5,E4,2h[4:3],E6,E7,E8,
28,2/8<5<8[4:5],
{32}
A2,A3,A4,,,,,,A3,A4,A5,,,,,,A2,A3,A4,,,,,,A1,A2,A3,,,,,,A2,A3,A4,,,,,,
{4}3,17,7/1>4>1[4:5],
{32}
A7,A6,A5,,,,,,A6,A5,A4,,,,,,A7,A6,A5,,,,,,A8,A7,A6,,,,,,A7,A6,A5,,,,,,A8,A7,A6,,,,,,
{4}
15,2/6h[4:2],
{32}
A1,A2,A3,,,,,,A2,A3,A4,,,,,,
{4}
3h[4:3]/7-1[8:1],,
{32}
A8,A7,A6,,,,,,A7,A6,A5,,,,,,
{16}
5/2h[8:1],,6,4,7h[8:1],,3,5,2h[8:1],,7,8,6,,4,,35,,35,,26,,26,,1,7,1,7,
{32}
1h[512:1],2h[512:1],3h[512:1],4h[512:1],
8h[512:1],7h[512:1],6h[512:1],5h[512:1],
{4}
1s5[8:5],,7-3b[12:1],7b,
{16}
28,,37,,1-5[8:1],8,2,7,1,,8,,7-4[8:1],1,6,2,7,,1,,2-6[8:1],8,3,7,2,,8h[8:1],,
5-1b[8:1],4,3,2,1/5b,,
{24}
2,3,4,
{8}
8-4[8:1]/5,7,4-7[8:1],3,2,3,
4bh[128:15]/8,
{24}
73,26,15,8bh[128:15]/4,,,15,26,37,
{16}
4/8b-4b[8:1],,,,38,,2,,
18,,27,,
6-1[8:1],5,7,4,6,,2,,3-7[8:1],4,2,5,3,,8,,
1,1,7,7,2,5,4,6,1qq5b[4:1],8,2,7,1b,,,,,,
{24}
8,7,6,
{16}
3,4,1,5,2,6,4,8,2bh[8:1],,6,,1b/8b,,
{24}
18,27,36,
{16}
4b/5b,,36,,8b/1b-5b[8:1],,,,
8b/1b,,7,,
8v3[8:1],2,7,4,8,,1,,2-6[8:1],7,4,5,2,,8,,7-3[8:1],1,5,3,7,,1h[8:1],,
4-8b[8:1],5,6,7,8/4b,,
{24}
7,6,5,
{8}
1-5[8:1]/4,2,5-2[8:1],6,7,6,
5bh[8:1]/1,
{24}
26,73,84,1bh[8:1]/5,,,84,73,62,
{16}
5/1b-5b[8:1],,,,61,,7,,48,,26,,
3,7,4,6,3,5,2,4,1,8,2,7,1bh[8:1],,
8,2,6,5,7,3,4,2,8,1,7,2,6,4,8bh[8:1],,
5,7,4,6,3,5,2,2,4,3,8,8,6,7,1bh[8:1],,
8,2,7,3,6,4h[8:1],
{32}
5,6,7,8,1,2,3,4,5,6,7,8,1,2,3,4,
5z1b[32:9]/1,,,
{16}
3bs7[32:6],,,,,,,,,
{32}
2,3,4,
{16}
6,5,7,4,
6,5,6,5,6,5,6,5,
7b,5,6,5,6,5,
{24}
6,5,6,
{16}
4b,6,5,6,5,6,5,6,
3b,6,5,6,5,6,5,6,
5,4,3,2,1,8,7,6,5h[8:1]/1,8,7,6,5,4,3,2,1h[8:1]/5,6,7,8,1,2,3,4,56,7,8,1,4,3,2,1,
8-4b[12:1],8,8,8,8b,,,,2,5,3h[8:1],,1,5,7,3,5h[8:1],,2,6,4,8,6h[8:1],,
1,5,7,3,5,,46,,2h[8:1],,
{24}
1,8,7,6/4b,,,8,7,6,5/3b,,,7,6,5,4/2b,,,3,,,
12,,,12,38,47,5b/6b,,,37,,,45,,,45,36,27,1b-5b[8:1]/8b,,,,,,
{64}
1b/8b,Cf,,,,,,,
{16}7-3<6-2<7b[4:9],,,,,,,E4,E3,E2,E1,E8,E7,E6,
{4},,,,E
