&title=テトリス
&artist=テト
&first=0.02
&lv_5=14
&des_5=MoriSukiw
&inote_5=
(170){4},,,,2h[2:1]/8-6[8:1],
8,8-4[8:1],8,
7h[2:1]/1-3[8:1],1,1-5[8:1],1,
2h[2:1]/8-6[8:1],8,8-4[8:1],8,
7h[4:1]/1-3[8:1],1,{8}1-5[8:1]/7-3[8:1],8,{4},3h[2:1]/5-7[8:1],
5,5-1[8:1],5,
6h[2:1]/4-2[8:1],4,4-8[8:1],4,
3h[2:1]/5-7[8:1],5,5-1[8:1],5,
6h[4:1]/4-2[8:1],4,{8}4-8[8:1]/6-2[8:1],4/6,{4},2h[4:1]/8-6[8:1],
8,{8}2b/8q4[8:1],2h[16:1],{4}8,
7h[4:1]/1-3[8:1],1,{8}7b/1p5[8:1],7h[16:1],{4}1,
2h[4:1]/8-6[8:1],8,{8}2b/8q4[8:1],2h[16:1],{4}8,
7h[4:1]/1-3[8:1],1,{8}1p5[8:1]/8q4[8:1],7,{4},2h[4:1]/8v6[8:1],
8,{8}2b/8q4[8:1],2h[16:1],{4}8,
7h[4:1]/1v3[8:1],1,{8}7b/1p5[8:1],7h[16:1],{4}1,
2h[4:1]/8v6[8:1],8,{8}2b/8q4[8:1],2h[16:1],{4}8,
{8}7h[8:1]/1v3[8:1],1,{4}1/7h[8:1],1h[8:1]/6h[8:1],1h[8:1]/5h[8:1],
{8}5h[8:1],6,5h[8:1],4,5h[8:1],6h[8:1],{4}7-3[8:1],
7b/2-6[8:1],2b/7-3[8:1],7b/2-6[8:1],7/2b,
{8}2h[8:1],3,2h[8:1],1,3h[8:1],2h[8:1],{4}1-5[8:1],
1b/8-4[8:1],8b/1-5[8:1],1b/8-4[8:1],1<4[8:7],
{8}2h[4:1],{4},{8}2,{2}2-4[8:1],
{8}2/8h[4:1],7,6h[4:1],5,4h[4:1],3,2h[4:1],1,
3h[4:3],{4},{8}1,{2}1-6[8:1],
{8}7b/4b,{16}6,5,{8}6,4/7,4/7,5/6,7/4,5/6,
2b/5b,{16}3,4,{8}3,5/2,2-8[8:1]/5-7[8:1],4/3,{4},{2}5h[4:1]/1h[4:1],
4h[4:1]/8h[4:1],
{4}5-8[8:1]/1-4[8:1],1<5[4:1]/5>1[4:1],{2},{8}7/1v3[8:1],
8,1/7v5[8:1],8,7/1v3[8:1],8,1/7v5[8:1],8,
7/4v2[8:1],3,4/6v8[8:1],7,6/4v2[8:1],3,4/6v8[8:1],7,
6/1v3[8:1],2,1/7v5[8:1],5,7/1v3[8:1],2,1/7v5[8:1],5,
{4}7b/4v2[8:1],4b/5<4[4:1],{2}5b,
{8}2/8v6[8:1],1,8/2v4[8:1],1,2/8v6[8:1],1,8/2v4[8:1],1,
2/5v7[8:1],6,5/3v1[8:1],2,3/5v7[8:1],6,5/3v1[8:1],2,
3/8v6[8:1],7,8/2v4[8:1],4,2/8v6[8:1],7,8/2v4[8:1],4,
{4}2b/5v7[8:1],5b/4>5[4:1],{2}4b,
{8}2b/7-4[8:1],1,7b/2-5[8:1],8,2b/7-4[8:1],1,7b/2-5[8:1],8,
2b/6-1[8:1],4,6b/3-8[8:1],5,3b/6-1[8:1],4,6b/3-8[8:1],5,
3b/7v5[8:1],6,7b/2v4[8:1],3,2b/7v5[8:1],6,7b/2v4[8:1],3,
{4}7/2b,{32}7w3[4:1],6,5,4,3,2,1,8,{2}7b,
{8}7b/2-5[8:1],8,2b/7-4[8:1],1,7b/2-5[8:1],8,2b/7-4[8:1],1,
7b/3-8[8:1],5,3b/6-1[8:1],4,6b/3-8[8:1],5,3b/6-1[8:1],4,
6b/2v4[8:1],3,2b/7v5[8:1],6,7b/2v4[8:1],3,2b/7v5[8:1],6,
{4}2/7b,{32}2w6[4:1],3,4,5,6,7,8,1,{2}2b,
{1}5h[4:3],
{8}4,4h[4:1],6,6h[4:1],3-7[8:1],3h[8:1],{4},{8}5,
5h[4:1],3,3h[4:1],6-2[8:1],6h[8:1],{4},{16}6,
4,5,3,{8}4,{16}3,5,4,6,{8}5,{16}6,4,5,3,
{8}4,4,4b/3h[8:1],4,4b/2h[8:1],4,4b/1h[8:1],4,
4,4h[4:1],2,2h[4:1],5-1[8:1],5h[8:1],{4},{8}5,
5h[4:1],7,7h[4:1],4-8[8:1],4h[8:1],{4},{16}6,
4,5,3,{8}4,{16}3,5,4,6,{8}5,{16}6,4,5,3,
{4}4w8[4:1],8w4[4:1],{2},{8}4h[8:1],
3,4h[8:1],5,4h[8:1],3h[8:1],{4}2-6[8:1],
{8}2b/7-3[8:1],7,7b/2-6[8:1],2,2b/7-3[8:1],7,{4}2/7b,
{8}7h[8:1],6,7h[8:1],8,6h[8:1],7h[8:1],{4}8-4[8:1],
{8}8b/1-5[8:1],2,1b/8-4[8:1],7,8b/1-5[8:1],2,8>5[8:7],7h[2:1],
{2}8,7-5[8:1],
{8}1h[8:1],{16}8,2,{8}3h[8:1],2,5,{16}4,6,{8}7h[8:1],5,
8h[4:3],{4},{8}7,{4}7-4[8:1],7b,
{8}2b/5b,{16}3,4,{8}3,2/5,5/2,4/3,2/5,4/3,
4b/7b,{16}6,5,{8}6,4/7,7-1[8:1]/4-2[8:1],5/6,{4}4/7,
{2}4h[4:1]/8h[4:1],5h[4:1]/1h[4:1],
(85){8}1V35[8:1]/5V71[8:1],4/8,{4}1b/5b,{16}1-5[16:1],5-1[16:1],8-4[16:1],4-8[16:1],{4}1,
{16}2-6[16:1],6-2[16:1],7-3[16:1],3-7[16:1],{4}2,{16}1-7[16:1],7-5[16:1],5-3[16:1],3-1[16:1],{4}1,
{8}7w3[8:1],{64}7,6,5,4,3,2,1,8,{4}7b,{16}8-4[16:1],4-8[16:1],1-5[16:1],5-1[16:1],{4}8,
{16}7-3[16:1],3-7[16:1],2-6[16:1],6-2[16:1],{4}7,{16}8-2[16:1],2-4[16:1],4-6[16:1],6-8[16:1],{4}8,
{8}2w6[8:1],{64}2,3,4,5,6,7,8,1,{4}2b,{16}8b/1p5[16:1],5p1[16:1],1<5[16:1],5>1[16:1],{4}1b,
{16}7p3[16:1],3p7[16:1],7<3[16:1],3>7[16:1],{4}7b,{16}4-6[16:1]*<8[8:1],6-8[16:1],8-2[16:1],2-4[16:1],{4}4b,
{64}7b,6,5,4,3,2,1,8,7/2b,3,4,5,6,7,8,1,{4}2/6h[8:1],{16}1b/8q4[16:1],4q8[16:1],8>4[16:1],4<8[16:1],{4}8b,
{16}2q6[16:1],6q2[16:1],2>6[16:1],6<2[16:1],{4}2b,{16}5-3[16:1]*>1[8:1],3-1[16:1],1-7[16:1],7-5[16:1],{4}5b,
{64}2b,3,4,5,6,7,8,1,2/7b,6,5,4,3,2,1,8,{4}7/3h[8:1],(170){16}8b,4,5,4,3,4,5,4,
7,4,5,4,6,4,5,4,2b,4,5,4,6,4,5,4,
2,4,5,4,2,4,5,4,5b,3,4,3,5,3,4,3,
4b,2,3,2,4,2,3,2,1b,8,7,6,{32}1w5[4:1],8,7,6,5,4,3,2,
{2}1b,{16}1b,5,4,5,6,5,4,5,
2,5,4,5,3,5,4,5,7b,5,4,5,3,5,4,5,
7,5,4,5,7,5,4,5,4b,6,5,6,4,6,5,6,
5b,7,6,7,5,7,6,7,8b,1,2,3,{32}8w4[4:1],1,2,3,4,5,6,7,
{2}8b,{16}6b,1,8,1,3b,1,8,1,
6b,1,8,1,6b,1,8,1,3b,1,8,1,6b,1,8,1,
3b,1,8,1,3b,1,8,1,8b,2,7,2,6b,2,5,2,
5b,6,7,8,1,2,3,4,{32}8b,7,6,5,4,3,2,1,8w4[4:1],7,6,5,4,3,2,1,
{2}8b,{16}3b,8,1,8,6b,8,1,8,
3b,8,1,8,3b,8,1,8,6b,8,1,8,3b,8,1,8,
6b,8,1,8,6b,8,1,8,1b,7,2,7,3b,7,4,7,
4b,3,2,1,8,7,6,5,{32}1b,2,3,4,5,6,7,8,1w5[4:1],2,3,4,5,6,7,8,
{2}1b,{16}8b,4,5,4,8b,4,5,4,
8b,4,5,4,8b,4,5,4,7b,4,5,4,2b,4,5,4,
7b,4,5,4,2b,4,5,4,6b,4,5,4,3b,4,5,4,
7b,4,5,4,2b,4,5,4,{32}8b,7,6,5,4,3,2,1,8b/4b,7,6,5,4,3,2,1,
{1}8b/4h[8:1],
